  0
SECTION
  2
HEADER
  9
$ACADVER
  1
AC1032
  9
$ACADMAINTVER
 90
       55
  9
$DWGCODEPAGE
  3
ANSI_1252
  9
$LASTSAVEDBY
  1
ferlenga
  9
$CUSTOMPROPERTYTAG
  1
AmdtFileType
  9
$CUSTOMPROPERTY
  1
84
  9
$REQUIREDVERSIONS
160
                 0
  9
$INSBASE
 10
0.0
 20
0.0
 30
0.0
  9
$EXTMIN
 10
12.20867845024736
 20
414.7341045018564
 30
0.0
  9
$EXTMAX
 10
223.5550510335717
 20
625.5477305837982
 30
0.0
  9
$LIMMIN
 10
0.0
 20
0.0
  9
$LIMMAX
 10
420.0
 20
297.0
  9
$ORTHOMODE
 70
     1
  9
$REGENMODE
 70
     1
  9
$FILLMODE
 70
     1
  9
$QTEXTMODE
 70
     0
  9
$MIRRTEXT
 70
     1
  9
$LTSCALE
 40
15.0
  9
$ATTMODE
 70
     1
  9
$TEXTSIZE
 40
2.5
  9
$TRACEWID
 40
1.0
  9
$TEXTSTYLE
  7
Standard
  9
$CLAYER
  8
0
  9
$CELTYPE
  6
ByLayer
  9
$CECOLOR
 62
   256
  9
$CELTSCALE
 40
1.0
  9
$DISPSILH
 70
     0
  9
$DIMSCALE
 40
4.0
  9
$DIMASZ
 40
2.5
  9
$DIMEXO
 40
1.0
  9
$DIMDLI
 40
10.0
  9
$DIMRND
 40
0.0
  9
$DIMDLE
 40
0.0
  9
$DIMEXE
 40
1.0
  9
$DIMTP
 40
0.1
  9
$DIMTM
 40
0.1
  9
$DIMTXT
 40
3.5
  9
$DIMCEN
 40
0.0
  9
$DIMTSZ
 40
0.0
  9
$DIMTOL
 70
     0
  9
$DIMLIM
 70
     0
  9
$DIMTIH
 70
     0
  9
$DIMTOH
 70
     0
  9
$DIMSE1
 70
     0
  9
$DIMSE2
 70
     0
  9
$DIMTAD
 70
     1
  9
$DIMZIN
 70
     8
  9
$DIMBLK
  1

  9
$DIMASO
 70
     1
  9
$DIMSHO
 70
     1
  9
$DIMPOST
  1

  9
$DIMAPOST
  1
"
  9
$DIMALT
 70
     0
  9
$DIMALTD
 70
     2
  9
$DIMALTF
 40
0.0393701
  9
$DIMLFAC
 40
1.0
  9
$DIMTOFL
 70
     1
  9
$DIMTVP
 40
0.0
  9
$DIMTIX
 70
     0
  9
$DIMSOXD
 70
     0
  9
$DIMSAH
 70
     0
  9
$DIMBLK1
  1

  9
$DIMBLK2
  1

  9
$DIMSTYLE
  2
AM_ISO
  9
$DIMCLRD
 70
     3
  9
$DIMCLRE
 70
     3
  9
$DIMCLRT
 70
     2
  9
$DIMTFAC
 40
0.71
  9
$DIMGAP
 40
1.5
  9
$DIMJUST
 70
     0
  9
$DIMSD1
 70
     0
  9
$DIMSD2
 70
     0
  9
$DIMTOLJ
 70
     0
  9
$DIMTZIN
 70
     8
  9
$DIMALTZ
 70
     0
  9
$DIMALTTZ
 70
     0
  9
$DIMUPT
 70
     0
  9
$DIMDEC
 70
     1
  9
$DIMTDEC
 70
     2
  9
$DIMALTU
 70
     2
  9
$DIMALTTD
 70
     2
  9
$DIMTXSTY
  7
ROMANS
  9
$DIMAUNIT
 70
     0
  9
$DIMADEC
 70
     0
  9
$DIMALTRND
 40
0.0
  9
$DIMAZIN
 70
     2
  9
$DIMDSEP
 70
    46
  9
$DIMATFIT
 70
     3
  9
$DIMFRAC
 70
     0
  9
$DIMLDRBLK
  1

  9
$DIMLUNIT
 70
     2
  9
$DIMLWD
 70
    -1
  9
$DIMLWE
 70
    -1
  9
$DIMTMOVE
 70
     0
  9
$DIMFXL
 40
1.0
  9
$DIMFXLON
 70
     0
  9
$DIMJOGANG
 40
0.7853981633974483
  9
$DIMTFILL
 70
     0
  9
$DIMTFILLCLR
 70
     0
  9
$DIMARCSYM
 70
     0
  9
$DIMLTYPE
  6

  9
$DIMLTEX1
  6

  9
$DIMLTEX2
  6

  9
$DIMTXTDIRECTION
 70
     0
  9
$LUNITS
 70
     2
  9
$LUPREC
 70
     4
  9
$SKETCHINC
 40
1.0
  9
$FILLETRAD
 40
9.0
  9
$AUNITS
 70
     0
  9
$AUPREC
 70
     0
  9
$MENU
  1
.
  9
$ELEVATION
 40
0.0
  9
$PELEVATION
 40
0.0
  9
$THICKNESS
 40
0.0
  9
$LIMCHECK
 70
     0
  9
$CHAMFERA
 40
0.0
  9
$CHAMFERB
 40
0.0
  9
$CHAMFERC
 40
20.0
  9
$CHAMFERD
 40
0.0
  9
$SKPOLY
 70
     0
  9
$TDCREATE
 40
2451697.380812789
  9
$TDUCREATE
 40
2451697.297479456
  9
$TDUPDATE
 40
2459740.604531042
  9
$TDUUPDATE
 40
2459740.521197708
  9
$TDINDWG
 40
3.8328731481
  9
$TDUSRTIMER
 40
0.0003773611
  9
$USRTIMER
 70
     1
  9
$ANGBASE
 50
0.0
  9
$ANGDIR
 70
     0
  9
$PDMODE
 70
     0
  9
$PDSIZE
 40
0.0
  9
$PLINEWID
 40
0.0
  9
$SPLFRAME
 70
     0
  9
$SPLINETYPE
 70
     6
  9
$SPLINESEGS
 70
     8
  9
$HANDSEED
  5
29042
  9
$SURFTAB1
 70
     6
  9
$SURFTAB2
 70
     6
  9
$SURFTYPE
 70
     6
  9
$SURFU
 70
     6
  9
$SURFV
 70
     6
  9
$UCSBASE
  2

  9
$UCSNAME
  2

  9
$UCSORG
 10
0.0
 20
0.0
 30
0.0
  9
$UCSXDIR
 10
1.0
 20
0.0000000000004043
 30
0.0
  9
$UCSYDIR
 10
-0.0000000000004043
 20
1.0
 30
0.0
  9
$UCSORTHOREF
  2

  9
$UCSORTHOVIEW
 70
     0
  9
$UCSORGTOP
 10
0.0
 20
0.0
 30
0.0
  9
$UCSORGBOTTOM
 10
0.0
 20
0.0
 30
0.0
  9
$UCSORGLEFT
 10
0.0
 20
0.0
 30
0.0
  9
$UCSORGRIGHT
 10
0.0
 20
0.0
 30
0.0
  9
$UCSORGFRONT
 10
0.0
 20
0.0
 30
0.0
  9
$UCSORGBACK
 10
0.0
 20
0.0
 30
0.0
  9
$PUCSBASE
  2

  9
$PUCSNAME
  2

  9
$PUCSORG
 10
0.0
 20
0.0
 30
0.0
  9
$PUCSXDIR
 10
1.0
 20
0.0
 30
0.0
  9
$PUCSYDIR
 10
0.0
 20
1.0
 30
0.0
  9
$PUCSORTHOREF
  2

  9
$PUCSORTHOVIEW
 70
     0
  9
$PUCSORGTOP
 10
0.0
 20
0.0
 30
0.0
  9
$PUCSORGBOTTOM
 10
0.0
 20
0.0
 30
0.0
  9
$PUCSORGLEFT
 10
0.0
 20
0.0
 30
0.0
  9
$PUCSORGRIGHT
 10
0.0
 20
0.0
 30
0.0
  9
$PUCSORGFRONT
 10
0.0
 20
0.0
 30
0.0
  9
$PUCSORGBACK
 10
0.0
 20
0.0
 30
0.0
  9
$USERI1
 70
     0
  9
$USERI2
 70
     0
  9
$USERI3
 70
     0
  9
$USERI4
 70
     0
  9
$USERI5
 70
     0
  9
$USERR1
 40
0.0
  9
$USERR2
 40
0.0
  9
$USERR3
 40
0.0
  9
$USERR4
 40
0.0
  9
$USERR5
 40
0.0
  9
$WORLDVIEW
 70
     1
  9
$SHADEDGE
 70
     3
  9
$SHADEDIF
 70
    70
  9
$TILEMODE
 70
     1
  9
$MAXACTVP
 70
    64
  9
$PINSBASE
 10
0.0
 20
0.0
 30
0.0
  9
$PLIMCHECK
 70
     0
  9
$PEXTMIN
 10
1.000000000000000E+20
 20
1.000000000000000E+20
 30
1.000000000000000E+20
  9
$PEXTMAX
 10
-1.000000000000000E+20
 20
-1.000000000000000E+20
 30
-1.000000000000000E+20
  9
$PLIMMIN
 10
0.0
 20
0.0
  9
$PLIMMAX
 10
0.0
 20
0.0
  9
$UNITMODE
 70
     0
  9
$VISRETAIN
 70
     1
  9
$PLINEGEN
 70
     0
  9
$PSLTSCALE
 70
     1
  9
$TREEDEPTH
 70
  3020
  9
$CMLSTYLE
  2
Standard
  9
$CMLJUST
 70
     0
  9
$CMLSCALE
 40
20.0
  9
$PROXYGRAPHICS
 70
     1
  9
$MEASUREMENT
 70
     1
  9
$CELWEIGHT
370
    -1
  9
$ENDCAPS
280
     0
  9
$JOINSTYLE
280
     0
  9
$LWDISPLAY
290
     0
  9
$INSUNITS
 70
     4
  9
$HYPERLINKBASE
  1

  9
$STYLESHEET
  1
monochrome.ctb
  9
$XEDIT
290
     1
  9
$CEPSNTYPE
380
     0
  9
$PSTYLEMODE
290
     1
  9
$FINGERPRINTGUID
  2
{6971FC40-378B-11D4-9C98-0060974E9C7C}
  9
$VERSIONGUID
  2
{C6AD9A95-1A00-4298-B34A-0E1A11667AC3}
  9
$EXTNAMES
290
     1
  9
$PSVPSCALE
 40
0.0
  9
$OLESTARTUP
290
     0
  9
$SORTENTS
280
   127
  9
$INDEXCTL
280
     0
  9
$HIDETEXT
280
     0
  9
$XCLIPFRAME
280
     0
  9
$HALOGAP
280
     0
  9
$OBSCOLOR
 70
   257
  9
$OBSLTYPE
280
     0
  9
$INTERSECTIONDISPLAY
280
     0
  9
$INTERSECTIONCOLOR
 70
   257
  9
$DIMASSOC
280
     1
  9
$PROJECTNAME
  1

  9
$CAMERADISPLAY
290
     0
  9
$LENSLENGTH
 40
50.0
  9
$CAMERAHEIGHT
 40
0.0
  9
$STEPSPERSEC
 40
2.0
  9
$STEPSIZE
 40
6.0
  9
$3DDWFPREC
 40
2.0
  9
$PSOLWIDTH
 40
0.25
  9
$PSOLHEIGHT
 40
4.0
  9
$LOFTANG1
 40
1.570796326794897
  9
$LOFTANG2
 40
1.570796326794897
  9
$LOFTMAG1
 40
0.0
  9
$LOFTMAG2
 40
0.0
  9
$LOFTPARAM
 70
     7
  9
$LOFTNORMALS
280
     1
  9
$LATITUDE
 40
37.795
  9
$LONGITUDE
 40
-122.394
  9
$NORTHDIRECTION
 40
0.0
  9
$TIMEZONE
 70
 -8000
  9
$LIGHTGLYPHDISPLAY
280
     1
  9
$TILEMODELIGHTSYNCH
280
     1
  9
$CMATERIAL
347
241BE
  9
$SOLIDHIST
280
     1
  9
$SHOWHIST
280
     1
  9
$DWFFRAME
280
     2
  9
$DGNFRAME
280
     0
  9
$REALWORLDSCALE
290
     1
  9
$INTERFERECOLOR
 62
     1
  9
$INTERFEREOBJVS
345
241CB
  9
$INTERFEREVPVS
346
241C8
  9
$CSHADOW
280
     0
  9
$SHADOWPLANELOCATION
 40
0.0
  0
ENDSEC
  0
SECTION
  2
CLASSES
  0
CLASS
  1
ACDBDICTIONARYWDFLT
  2
AcDbDictionaryWithDefault
  3
ObjectDBX Classes
 90
        0
 91
        3
280
     0
281
     0
  0
CLASS
  1
ACDBPLACEHOLDER
  2
AcDbPlaceHolder
  3
ObjectDBX Classes
 90
        0
 91
        1
280
     0
281
     0
  0
CLASS
  1
LAYOUT
  2
AcDbLayout
  3
ObjectDBX Classes
 90
        0
 91
        1
280
     0
281
     0
  0
CLASS
  1
ACME_DOCUMENT
  2
AcMeDbDoc
  3
AcMeServices
 90
     1024
 91
        1
280
     1
281
     0
  0
CLASS
  1
ACMESCOPE
  2
AcMeScope
  3
AcMeServices
 90
     1024
 91
        2
280
     1
281
     0
  0
CLASS
  1
ACMECOMMANDHISTORY
  2
AcMeCommandHistory
  3
AcMeServices
 90
     1024
 91
        2
280
     1
281
     0
  0
CLASS
  1
DICTIONARYVAR
  2
AcDbDictionaryVar
  3
ObjectDBX Classes
 90
        0
 91
        3
280
     0
281
     0
  0
CLASS
  1
ACIMSYSVARMAN
  2
AcImSysVarManager
  3
AcMeServices
 90
     1024
 91
        4
280
     1
281
     0
  0
CLASS
  1
ACIMREALSYSVAR
  2
AcImRealSysVar
  3
AcMeServices
 90
     1024
 91
        1
280
     1
281
     0
  0
CLASS
  1
ACIMINTSYSVAR
  2
AcImIntSysVar
  3
AcMeServices
 90
     1024
 91
        4
280
     1
281
     0
  0
CLASS
  1
ACMEDRAWINGMAN
  2
AcMeDrawingMan
  3
AcMeServices
 90
     1024
 91
        1
280
     1
281
     0
  0
CLASS
  1
ACMEVIEW
  2
AcMeView
  3
AcMeServices
 90
     1024
 91
        1
280
     1
281
     0
  0
CLASS
  1
ACDBENTITYCACHE
  2
AcMeEntityCache
  3
AcMeServices
 90
     1024
 91
        1
280
     1
281
     0
  0
CLASS
  1
GSMANAGER
  2
AcMeGSManager
  3
AcMeServices
 90
     1024
 91
        1
280
     1
281
     0
  0
CLASS
  1
AMDTINTERNALREACTOR
  2
AmdtInternalReactor
  3
AcMeServices
 90
     1024
 91
        1
280
     1
281
     0
  0
CLASS
  1
ACMESTATEMGR
  2
AcMeStateMgr
  3
AcMeServices
 90
     1024
 91
        2
280
     1
281
     0
  0
CLASS
  1
ACME_DATABASE
  2
AcMeDbDatabase
  3
AcMeServices
 90
     1024
 91
        1
280
     1
281
     0
  0
CLASS
  1
ACRFINSADJUSTERMGR
  2
AcRfInsAdjusterMgr
  3
AcMeServices
 90
     1024
 91
        1
280
     1
281
     0
  0
CLASS
  1
AMGSETTINGSOBJ
  2
AmgSettingsObj
  3
"AcadM|Product Description: AutoCAD Mechanical|Company: Autodesk, Inc."
 90
     1024
 91
        3
280
     1
281
     0
  0
CLASS
  1
ACMDATADICTIONARY
  2
AcmDataDictionary
  3
"AcmSymBB|Product Description: AutoCAD Mechanical|Company: Autodesk, Inc."
 90
     1024
 91
        2
280
     1
281
     0
  0
CLASS
  1
ACMDATAENTRYBLOCK
  2
AcmDataEntryBlock
  3
AcmSymBB|Product Description: AutoCAD Mechanical|Company: Autodesk, Inc.
 90
     1024
 91
        1
280
     1
281
     0
  0
CLASS
  1
AMGOBJPROPCFG
  2
AmgObjPropCfg
  3
"AmgLay|Product Description: AutoCAD Mechanical|Company: Autodesk, Inc."
 90
     1024
 91
        2
280
     1
281
     0
  0
CLASS
  1
LAYER_INDEX
  2
AcDbLayerIndex
  3
ObjectDBX Classes
 90
        0
 91
        3
280
     0
281
     0
  0
CLASS
  1
IDBUFFER
  2
AcDbIdBuffer
  3
ObjectDBX Classes
 90
        0
 91
        3
280
     0
281
     0
  0
CLASS
  1
ACAMGFILTERDAT
  2
AcAmgFilterDat
  3
"AcadM|Product Description: AutoCAD Mechanical|Company: Autodesk, Inc."
 90
     1024
 91
        1
280
     1
281
     0
  0
CLASS
  1
ACMSTANDARDANSI
  2
AcmStandardANSI
  3
"Amdt_StdImp|Product Description: AutoCAD Mechanical|Company: Autodesk, Inc."
 90
     1024
 91
        1
280
     1
281
     0
  0
CLASS
  1
ACMSURFSTANDARDANSI
  2
AcmSurfTextStdANSI
  3
"Amdt_StdImp|Product Description: AutoCAD Mechanical|Company: Autodesk, Inc."
 90
     1024
 91
        1
280
     1
281
     0
  0
CLASS
  1
ACMFCFSTANDARDANSI
  2
AcmFCFStdANSI
  3
"Amdt_StdImp|Product Description: AutoCAD Mechanical|Company: Autodesk, Inc."
 90
     1024
 91
        1
280
     1
281
     0
  0
CLASS
  1
ACMWELDSTANDARDANSI
  2
AcmWeldingStdANSI
  3
"Amdt_StdImp|Product Description: AutoCAD Mechanical|Company: Autodesk, Inc."
 90
     1024
 91
        1
280
     1
281
     0
  0
CLASS
  1
ACMIDSTANDARDANSI
  2
AcmIdStdANSI
  3
"Amdt_StdImp|Product Description: AutoCAD Mechanical|Company: Autodesk, Inc."
 90
     1024
 91
        1
280
     1
281
     0
  0
CLASS
  1
ACMDATUMSTANDARDANSI
  2
AcmDatumStdANSI
  3
"Amdt_StdImp|Product Description: AutoCAD Mechanical|Company: Autodesk, Inc."
 90
     1024
 91
        1
280
     1
281
     0
  0
CLASS
  1
ACMBOMSTANDARDANSI
  2
AcmBOMStdANSI
  3
"Amdt_StdImp|Product Description: AutoCAD Mechanical|Company: Autodesk, Inc."
 90
     1024
 91
        1
280
     1
281
     0
  0
CLASS
  1
TABLESTYLE
  2
AcDbTableStyle
  3
ObjectDBX Classes
 90
     4095
 91
        3
280
     0
281
     0
  0
CLASS
  1
ACGREFMASTER
  2
AcGrefMaster
  3
AcAttribServices
 90
     1024
 91
        2
280
     1
281
     0
  0
CLASS
  1
AM_DRAWING_MGR
  2
AcDmDwgMgr
  3
AcMechDwgViewMgmt
 90
     1024
 91
        1
280
     1
281
     0
  0
CLASS
  1
AM_DWG_DOCUMENT
  2
AcDmDwgDocument
  3
AcMechDwgViewMgmt
 90
     1024
 91
        1
280
     1
281
     0
  0
CLASS
  1
AM_DWG_SHEET
  2
AcDmSheet
  3
AcMechDwgViewMgmt
 90
     1024
 91
        1
280
     1
281
     0
  0
CLASS
  1
AM_VIEWDIMPARMAP
  2
AcDmViewDimParMap
  3
AcMechDwgViewMgmt
 90
     1024
 91
        1
280
     1
281
     0
  0
CLASS
  1
AM_DWGMGR_NAME
  2
AcDmDwgMgrName
  3
AcMechDwgViewMgmt
 90
     1024
 91
        1
280
     1
281
     0
  0
CLASS
  1
ACGREFACADMASTER
  2
AcGrefacadMaster
  3
AcGrefServices
 90
     1024
 91
        2
280
     1
281
     0
  0
CLASS
  1
AMDTMENUSTATEMGR
  2
AmdtMenuStateMgr
  3
McadcomServices
 90
     1024
 91
        1
280
     1
281
     0
  0
CLASS
  1
AMDTMCOMMENUSTATE
  2
AmdtMcomMenuState
  3
McadcomServices
 90
     1024
 91
        1
280
     1
281
     0
  0
CLASS
  1
AMIMASTER
  2
AmiMaster
  3
AmiServices
 90
     1024
 91
        2
280
     1
281
     0
  0
CLASS
  1
MAPIAMMOUDLE
  2
MApiAmModule
  3
MApiAmServices
 90
     1024
 91
        2
280
     1
281
     0
  0
CLASS
  1
AMDTADMENUSTATE
  2
AmdtAdMenuState
  3
DesignerServices
 90
     1024
 91
        1
280
     1
281
     0
  0
CLASS
  1
ADAPPL
  2
AcAdAppl
  3
DesignerAssemblies
 90
     1024
 91
        1
280
     1
281
     0
  0
CLASS
  1
DEPMGR
  2
AcAdDepMgr
  3
DesignerAssemblies
 90
     1024
 91
        1
280
     1
281
     0
  0
CLASS
  1
PARAMMGR
  2
AcAdParamMgr
  3
DesignerAssemblies
 90
     1024
 91
        1
280
     1
281
     0
  0
CLASS
  1
PARAMSCOPE
  2
AcAdParamScope
  3
DesignerAssemblies
 90
     1024
 91
        1
280
     1
281
     0
  0
CLASS
  1
NAMEDAPPL
  2
AcAdNamedAppl
  3
DesignerAssemblies
 90
     1024
 91
        1
280
     1
281
     0
  0
CLASS
  1
AMDTDMMENUSTATE
  2
AmdtDmMenuState
  3
AcMechDwgViewMgmt
 90
     1024
 91
        1
280
     1
281
     0
  0
CLASS
  1
AMDTAMMENUSTATE
  2
AmdtAmMenuState
  3
DesignerAssemblies
 90
     1024
 91
        1
280
     1
281
     0
  0
CLASS
  1
ACIMSTRSYSVAR
  2
AcImStrSysVar
  3
AcMeServices
 90
     1024
 91
        6
280
     1
281
     0
  0
CLASS
  1
ACAMPROJECT
  2
AcAmProject
  3
DesignerAssemblies
 90
     1024
 91
        2
280
     1
281
     0
  0
CLASS
  1
ACAMGRCOMPDEF
  2
AcAmGrCompDef
  3
DesignerAssemblies
 90
     1024
 91
        2
280
     1
281
     0
  0
CLASS
  1
ACCMCONTEXT
  2
AcCmContext
  3
DesignerAssemblies
 90
     1024
 91
        1
280
     1
281
     0
  0
CLASS
  1
ACAMCOMPDEF
  2
AcAmCompDef
  3
DesignerAssemblies
 90
     1024
 91
        2
280
     1
281
     0
  0
CLASS
  1
ACAMCOMPDEFMGR
  2
AcAmCompDefMgr
  3
DesignerAssemblies
 90
     1024
 91
        2
280
     1
281
     0
  0
CLASS
  1
AMCONTEXTMGR
  2
AcAmContextMgr
  3
DesignerAssemblies
 90
     1024
 91
        2
280
     1
281
     0
  0
CLASS
  1
ACAMCONTEXTMODELER
  2
AcAmContextModeler
  3
DesignerAssemblies
 90
     1024
 91
        2
280
     1
281
     0
  0
CLASS
  1
ACAMGTITLESTD
  2
AcAmgTitleStd
  3
"AmgTitle|Product Description: AutoCAD Mechanical|Company: Autodesk, Inc."
 90
     1024
 91
        2
280
     1
281
     0
  0
CLASS
  1
ACMDETAILSTANDARDANSI
  2
AmdtDetailSymStdANSI
  3
"Amdt_StdImp|Product Description: AutoCAD Mechanical|Company: Autodesk, Inc."
 90
     1024
 91
        1
280
     1
281
     0
  0
CLASS
  1
ACMSECTIONSTANDARDANSI
  2
AmdtSectionSymStdANSI
  3
"Amdt_StdImp|Product Description: AutoCAD Mechanical|Company: Autodesk, Inc."
 90
     1024
 91
        1
280
     1
281
     0
  0
CLASS
  1
ACMCENTERLINESTANDARDANSI
  2
AmdtCenterLineStdANSI
  3
"Amdt_StdImp|Product Description: AutoCAD Mechanical|Company: Autodesk, Inc."
 90
     1024
 91
        1
280
     1
281
     0
  0
CLASS
  1
ACMTHREADLINESTANDARDANSI
  2
AmdtThreadLineStdANSI
  3
"Amdt_StdImp|Product Description: AutoCAD Mechanical|Company: Autodesk, Inc."
 90
     1024
 91
        1
280
     1
281
     0
  0
CLASS
  1
ACMNOTESTANDARDANSI
  2
AmdtNoteStdANSI
  3
"Amdt_StdImp|Product Description: AutoCAD Mechanical|Company: Autodesk, Inc."
 90
     1024
 91
        1
280
     1
281
     0
  0
CLASS
  1
AMDTNOTETEMPLATEDB
  2
AmdtNoteTemplateDB
  3
AcmSymBB|Product Description: AutoCAD Mechanical|Company: Autodesk, Inc.
 90
     1024
 91
        8
280
     1
281
     0
  0
CLASS
  1
ACAMGLAYSTD
  2
AcAmgLayStd
  3
"AmgLay|Product Description: AutoCAD Mechanical|Company: Autodesk, Inc."
 90
     1024
 91
        2
280
     1
281
     0
  0
CLASS
  1
ACAMGDIMSTD
  2
AcAmgDimStd
  3
"AmgDim|Product Description: AutoCAD Mechanical|Company: Autodesk, Inc."
 90
     1024
 91
        2
280
     1
281
     0
  0
CLASS
  1
ACAMGHOLECHARTSTDANSI
  2
AcAmgHoleChartStdANSI
  3
AmgDim|Product Description: AutoCAD Mechanical|Company: Autodesk, Inc.
 90
     1024
 91
        1
280
     1
281
     0
  0
CLASS
  1
CATALOGSTATE
  2
AcAmCatalogState
  3
DesignerAssemblies
 90
     1024
 91
        1
280
     1
281
     0
  0
CLASS
  1
ACAMGRCOMPDEFSET
  2
AcAmGrCompDefSet
  3
DesignerAssemblies
 90
     1024
 91
        1
280
     1
281
     0
  0
CLASS
  1
AMDTBROWSERDBTAB
  2
AmdtBrowserDbTab
  3
McadcomServices
 90
     1024
 91
        1
280
     1
281
     0
  0
CLASS
  1
CBROWSERAPPOBJECT
  2
CBrowserAppObject
  3
McadcomServices
 90
     1024
 91
        1
280
     1
281
     0
  0
CLASS
  1
DM_PLACEHOLDER
  2
AcDmSelsetPlaceholder
  3
McadcomServices
 90
     1024
 91
        1
280
     1
281
     0
  0
CLASS
  1
SORTENTSTABLE
  2
AcDbSortentsTable
  3
ObjectDBX Classes
 90
        0
 91
        3
280
     0
281
     0
  0
CLASS
  1
ACMSTANDARDISO
  2
AcmStandardISO
  3
"Amdt_StdImp|Product Description: AutoCAD Mechanical|Company: Autodesk, Inc."
 90
     1024
 91
        2
280
     1
281
     0
  0
CLASS
  1
AMDTEDGESTANDARDISO
  2
AmdtEdgeStdISO
  3
"Amdt_StdImp|Product Description: AutoCAD Mechanical|Company: Autodesk, Inc."
 90
     1024
 91
        1
280
     1
281
     0
  0
CLASS
  1
ACMSURFSTANDARDISO
  2
AcmSurfTextStdISO
  3
"Amdt_StdImp|Product Description: AutoCAD Mechanical|Company: Autodesk, Inc."
 90
     1024
 91
        1
280
     1
281
     0
  0
CLASS
  1
ACMFCFSTANDARDISO
  2
AcmFCFStdISO
  3
"Amdt_StdImp|Product Description: AutoCAD Mechanical|Company: Autodesk, Inc."
 90
     1024
 91
        1
280
     1
281
     0
  0
CLASS
  1
ACMWELDSTANDARDISO
  2
AcmWeldingStdISO
  3
"Amdt_StdImp|Product Description: AutoCAD Mechanical|Company: Autodesk, Inc."
 90
     1024
 91
        2
280
     1
281
     0
  0
CLASS
  1
ACMIDSTANDARDISO
  2
AcmIdStdISO
  3
"Amdt_StdImp|Product Description: AutoCAD Mechanical|Company: Autodesk, Inc."
 90
     1024
 91
        1
280
     1
281
     0
  0
CLASS
  1
ACMDATUMSTANDARDISO
  2
AcmDatumStdISO
  3
"Amdt_StdImp|Product Description: AutoCAD Mechanical|Company: Autodesk, Inc."
 90
     1024
 91
        2
280
     1
281
     0
  0
CLASS
  1
ACMBOMSTANDARDISO
  2
AcmBOMStdISO
  3
"Amdt_StdImp|Product Description: AutoCAD Mechanical|Company: Autodesk, Inc."
 90
     1024
 91
        2
280
     1
281
     0
  0
CLASS
  1
ACMDETAILSTANDARDISO
  2
AmdtDetailSymStdISO
  3
"Amdt_StdImp|Product Description: AutoCAD Mechanical|Company: Autodesk, Inc."
 90
     1024
 91
        2
280
     1
281
     0
  0
CLASS
  1
ACMSECTIONSTANDARDISO
  2
AmdtSectionSymStdISO
  3
"Amdt_StdImp|Product Description: AutoCAD Mechanical|Company: Autodesk, Inc."
 90
     1024
 91
        1
280
     1
281
     0
  0
CLASS
  1
ACMCENTERLINESTANDARDISO
  2
AmdtCenterLineStdISO
  3
"Amdt_StdImp|Product Description: AutoCAD Mechanical|Company: Autodesk, Inc."
 90
     1024
 91
        2
280
     1
281
     0
  0
CLASS
  1
ACMNOTESTANDARDISO
  2
AmdtNoteStdISO
  3
"Amdt_StdImp|Product Description: AutoCAD Mechanical|Company: Autodesk, Inc."
 90
     1024
 91
        2
280
     1
281
     0
  0
CLASS
  1
ACAMGHOLECHARTSTDISO
  2
AcAmgHoleChartStdISO
  3
AmgDim|Product Description: AutoCAD Mechanical|Company: Autodesk, Inc.
 90
     1024
 91
        2
280
     1
281
     0
  0
CLASS
  1
ACMTHREADLINESTANDARDISO
  2
AmdtThreadLineStdISO
  3
"Amdt_StdImp|Product Description: AutoCAD Mechanical|Company: Autodesk, Inc."
 90
     1024
 91
        2
280
     1
281
     0
  0
CLASS
  1
ACDBCIRCARCRES
  2
AcDbCircArcRes
  3
AcGrefServices
 90
     1024
 91
        1
280
     1
281
     0
  0
CLASS
  1
ACAMGHOLECHARTORIGIN
  2
AcAmgHoleChartOrigin
  3
"AmgDim|Product Description: AutoCAD Mechanical|Company: Autodesk, Inc."
 90
     1024
 91
        1
280
     1
281
     1
  0
CLASS
  1
ACMDIMBREAKPERSREACTOR
  2
AcmDimBreakPersReactor
  3
AmgDim|Product Description: AutoCAD Mechanical|Company: Autodesk, Inc.
 90
     1024
 91
        1
280
     1
281
     0
  0
CLASS
  1
IMAGEDEF
  2
AcDbRasterImageDef
  3
ISM
 90
        0
 91
        3
280
     0
281
     0
  0
CLASS
  1
RASTERVARIABLES
  2
AcDbRasterVariables
  3
ISM
 90
        0
 91
        3
280
     0
281
     0
  0
CLASS
  1
MATERIAL
  2
AcDbMaterial
  3
ObjectDBX Classes
 90
     1153
 91
        3
280
     0
281
     0
  0
CLASS
  1
VISUALSTYLE
  2
AcDbVisualStyle
  3
ObjectDBX Classes
 90
     4095
 91
        3
280
     0
281
     0
  0
CLASS
  1
ACRFATTGENMGR
  2
AcRfAttGeneralMgr
  3
AcAttribServices
 90
     1024
 91
        1
280
     1
281
     0
  0
CLASS
  1
ACRFOBJATTMGR
  2
AcRfObjAttGroupMgr
  3
AcAttribServices
 90
     1024
 91
        1
280
     1
281
     0
  0
CLASS
  1
ACRFMCADAPIATTHOLDER
  2
AcRfMCADAPIAttHolder
  3
AcAttribServices
 90
     1024
 91
        1
280
     1
281
     0
  0
CLASS
  1
AMDTSYSATTR
  2
AmdtSystemAttribute
  3
AcAttribServices
 90
     1024
 91
        1
280
     1
281
     0
  0
CLASS
  1
ACMTAPERSTANDARDANSI
  2
AcmTaperStdANSI
  3
"Amdt_StdImp|Product Description: AutoCAD Mechanical|Company: Autodesk, Inc."
 90
     1024
 91
        1
280
     1
281
     0
  0
CLASS
  1
ACMTAPERSTANDARDISO
  2
AcmTaperStdISO
  3
"Amdt_StdImp|Product Description: AutoCAD Mechanical|Company: Autodesk, Inc."
 90
     1024
 91
        2
280
     1
281
     0
  0
CLASS
  1
AMDTEDGESTANDARDISO13715
  2
AmdtEdgeStdISO13715
  3
"Amdt_StdImp|Product Description: AutoCAD Mechanical|Company: Autodesk, Inc."
 90
     1024
 91
        2
280
     1
281
     0
  0
CLASS
  1
SCALE
  2
AcDbScale
  3
ObjectDBX Classes
 90
     1153
 91
        3
280
     0
281
     0
  0
CLASS
  1
MLEADERSTYLE
  2
AcDbMLeaderStyle
  3
ACDB_MLEADERSTYLE_CLASS
 90
     4095
 91
        3
280
     0
281
     0
  0
CLASS
  1
ACMSURFSTANDARDISO2002
  2
AcmSurfTextStdISO2002
  3
"Amdt_StdImp|Product Description: AutoCAD Mechanical|Company: Autodesk, Inc."
 90
     1024
 91
        2
280
     1
281
     0
  0
CLASS
  1
ACMSECTIONSTANDARDISO2001
  2
AmdtSectionSymStdISO2001
  3
"Amdt_StdImp|Product Description: AutoCAD Mechanical|Company: Autodesk, Inc."
 90
     1024
 91
        2
280
     1
281
     0
  0
CLASS
  1
ACMANOOTATIONVIEWSTANDARDISO
  2
AmdtAnViewStdISO
  3
"Amdt_StdImp|Product Description: AutoCAD Mechanical|Company: Autodesk, Inc."
 90
     1024
 91
        2
280
     1
281
     0
  0
CLASS
  1
CAMSSTRUCTBTNSTATE
  2
StructBtnState
  3
DesignerAssemblies
 90
     1024
 91
        2
280
     1
281
     0
  0
CLASS
  1
CELLSTYLEMAP
  2
AcDbCellStyleMap
  3
ObjectDBX Classes
 90
     1152
 91
        3
280
     0
281
     0
  0
CLASS
  1
EXACXREFPANELOBJECT
  2
ExAcXREFPanelObject
  3
EXAC_ESW
 90
     1025
 91
        1
280
     1
281
     0
  0
CLASS
  1
NPOCOLLECTION
  2
AcDbImpNonPersistentObjectsCollection
  3
ObjectDBX Classes
 90
     1153
 91
        1
280
     1
281
     0
  0
CLASS
  1
SOLID_BACKGROUND
  2
AcDbSolidBackground
  3
SCENEOE
 90
     4095
 91
        3
280
     0
281
     0
  0
CLASS
  1
ACARRAYJIGENTITY
  2
AcArrayJigEntity
  3
ACAD_ARRAY
 90
      129
 91
        1
280
     1
281
     1
  0
CLASS
  1
ACDBASSOCNETWORK
  2
AcDbAssocNetwork
  3
ObjectDBX Classes
 90
     1025
 91
        3
280
     1
281
     0
  0
CLASS
  1
ACDBASSOCACTION
  2
AcDbAssocAction
  3
ObjectDBX Classes
 90
     1025
 91
        3
280
     1
281
     0
  0
CLASS
  1
ACDBASSOCARRAYACTIONBODY
  2
AcDbAssocArrayActionBody
  3
ObjectDBX Classes
 90
     1025
 91
        3
280
     1
281
     0
  0
CLASS
  1
ACDBASSOCVERTEXACTIONPARAM
  2
AcDbAssocVertexActionParam
  3
ObjectDBX Classes
 90
     1025
 91
        7
280
     1
281
     0
  0
CLASS
  1
ACDBASSOCDEPENDENCY
  2
AcDbAssocDependency
  3
ObjectDBX Classes
 90
     1025
 91
        7
280
     1
281
     0
  0
CLASS
  1
ACDBASSOCARRAYPOLARPARAMETERS
  2
AcDbAssocArrayPolarParameters
  3
ObjectDBX Classes
 90
     1025
 91
        1
280
     1
281
     0
  0
CLASS
  1
ACDBSECTIONVIEWSTYLE
  2
AcDbSectionViewStyle
  3
ObjectDBX Classes
 90
     1025
 91
        3
280
     0
281
     0
  0
CLASS
  1
ACDBDETAILVIEWSTYLE
  2
AcDbDetailViewStyle
  3
ObjectDBX Classes
 90
     1025
 91
        3
280
     0
281
     0
  0
CLASS
  1
ACMFCFSTANDARDISO2004
  2
AcmFCFStdISO2004
  3
"Amdt_StdImp|Product Description: AutoCAD Mechanical|Company: Autodesk, Inc."
 90
     1024
 91
        2
280
     1
281
     0
  0
CLASS
  1
ACMIDSTANDARDISO2004
  2
AcmIdStdISO2004
  3
"Amdt_StdImp|Product Description: AutoCAD Mechanical|Company: Autodesk, Inc."
 90
     1024
 91
        2
280
     1
281
     0
  0
CLASS
  1
IMAGE
  2
AcDbRasterImage
  3
ISM
 90
      127
 91
        4
280
     0
281
     1
  0
CLASS
  1
IMAGEDEF_REACTOR
  2
AcDbRasterImageDefReactor
  3
ISM
 90
        1
 91
        3
280
     0
281
     0
  0
CLASS
  1
SUN
  2
AcDbSun
  3
SCENEOE
 90
     1153
 91
        3
280
     0
281
     0
  0
ENDSEC
  0
SECTION
  2
TABLES
  0
TABLE
  2
VPORT
  5
8
102
{ACAD_XDICTIONARY
360
2427B
102
}
330
0
100
AcDbSymbolTable
 70
     1
  0
VPORT
  5
241BC
330
8
100
AcDbSymbolTableRecord
100
AcDbViewportTableRecord
  2
*Active
 70
     0
 10
0.0
 20
0.0
 11
1.0
 21
1.0
 12
-2883.04076729074
 22
-36.82702648204645
 13
0.0
 23
0.0
 14
10.0
 24
10.0
 15
40.0
 25
40.0
 16
0.0
 26
0.0
 36
1.0
 17
3000.92263203265
 27
556.9679440248738
 37
0.0
 40
215.0298986035806
 41
1.487951807228916
 42
50.0
 43
0.0
 44
0.0
 50
0.0
 51
0.0
 71
    16
 72
  3000
 73
     1
 74
     0
 75
     0
 76
     0
 77
     0
 78
     0
281
     0
 65
     1
110
0.0
120
0.0
130
0.0
111
1.0
121
4.042745955709637E-13
131
0.0
112
-4.042745955709637E-13
122
1.0
132
0.0
 79
     0
146
0.0
348
241C7
 60
     3
 61
     5
292
     1
282
     1
141
0.0
142
0.0
 63
   250
421
  3355443
361
28D15
1001
ACAD_NAV_VCDISPLAY
1070
     3
  0
ENDTAB
  0
TABLE
  2
LTYPE
  5
5
330
0
100
AcDbSymbolTable
 70
    15
  0
LTYPE
  5
14
330
5
100
AcDbSymbolTableRecord
100
AcDbLinetypeTableRecord
  2
ByBlock
 70
     0
  3

 72
    65
 73
     0
 40
0.0
  0
LTYPE
  5
15
330
5
100
AcDbSymbolTableRecord
100
AcDbLinetypeTableRecord
  2
ByLayer
 70
     0
  3

 72
    65
 73
     0
 40
0.0
  0
LTYPE
  5
16
330
5
100
AcDbSymbolTableRecord
100
AcDbLinetypeTableRecord
  2
Continuous
 70
     0
  3
Solid line
 72
    65
 73
     0
 40
0.0
  0
LTYPE
  5
ECC
330
5
100
AcDbSymbolTableRecord
100
AcDbLinetypeTableRecord
  2
CENTER
 70
     0
  3
____ _ ____ _ ____ _ ____ _ ____ _ ____ _ ____ 
 72
    65
 73
     4
 40
2.0
 49
1.25
 74
     0
 49
-0.25
 74
     0
 49
0.25
 74
     0
 49
-0.25
 74
     0
  0
LTYPE
  5
2F4E
330
5
100
AcDbSymbolTableRecord
100
AcDbLinetypeTableRecord
  2
DOT
 70
     0
  3
. . . . . . . . . . . . . . . . . . . . . . . .
 72
    65
 73
     2
 40
0.25
 49
0.0
 74
     0
 49
-0.25
 74
     0
  0
LTYPE
  5
2857A
330
5
100
AcDbSymbolTableRecord
100
AcDbLinetypeTableRecord
  2
HIDDEN
 70
     0
  3
Hidden __ __ __ __ __ __ __ __ __ __ __ __ __ __
 72
    65
 73
     2
 40
9.525
 49
6.35
 74
     0
 49
-3.175
 74
     0
  0
LTYPE
  5
2857B
330
5
100
AcDbSymbolTableRecord
100
AcDbLinetypeTableRecord
  2
PHANTOM2
 70
     0
  3
Phantom (.5x) ___ _ _ ___ _ _ ___ _ _ ___ _ _
 72
    65
 73
     6
 40
31.75
 49
15.875
 74
     0
 49
-3.175
 74
     0
 49
3.175
 74
     0
 49
-3.175
 74
     0
 49
3.175
 74
     0
 49
-3.175
 74
     0
  0
LTYPE
  5
285B8
330
5
100
AcDbSymbolTableRecord
100
AcDbLinetypeTableRecord
  2
AM_ISO02W050
 70
     0
  3
__ __ __ __ __ __ __ __ __ __ __ __ __ __ __
 72
    65
 73
     2
 40
7.5
 49
6.0
 74
     0
 49
-1.5
 74
     0
  0
LTYPE
  5
285B9
330
5
100
AcDbSymbolTableRecord
100
AcDbLinetypeTableRecord
  2
AM_ISO08W050
 70
     0
  3
____ . ____ . ____ . ____ . ____ . ____ . ____
 72
    65
 73
     4
 40
18.0
 49
12.0
 74
     0
 49
-1.5
 74
     0
 49
3.0
 74
     0
 49
-1.5
 74
     0
  0
LTYPE
  5
285BA
330
5
100
AcDbSymbolTableRecord
100
AcDbLinetypeTableRecord
  2
AM_ISO09W050
 70
     0
  3
_____ . . _____ . . _____ . . ____ .. ____
 72
    65
 73
     6
 40
22.5
 49
12.0
 74
     0
 49
-1.5
 74
     0
 49
3.0
 74
     0
 49
-1.5
 74
     0
 49
3.0
 74
     0
 49
-1.5
 74
     0
  0
LTYPE
  5
285BB
330
5
100
AcDbSymbolTableRecord
100
AcDbLinetypeTableRecord
  2
Amconstr
 70
     0
  3
_______________________
 72
    65
 73
     2
 40
9999.0
 49
9999.0
 74
     0
 49
0.0
 74
     0
  0
LTYPE
  5
285BC
330
5
100
AcDbSymbolTableRecord
100
AcDbLinetypeTableRecord
  2
AM_ISO08W050x2
 70
     0
  3
__ . __ . __ . __ . __ . __
 72
    65
 73
     4
 40
9.0
 49
6.0
 74
     0
 49
-0.75
 74
     0
 49
1.5
 74
     0
 49
-0.75
 74
     0
  0
LTYPE
  5
285BD
330
5
100
AcDbSymbolTableRecord
100
AcDbLinetypeTableRecord
  2
AM_ISO02W050x2
 70
     0
  3
 _ _ _ _ _ _ _ _ _ _ _ _
 72
    65
 73
     2
 40
3.75
 49
3.0
 74
     0
 49
-0.75
 74
     0
  0
LTYPE
  5
285C0
330
5
100
AcDbSymbolTableRecord
100
AcDbLinetypeTableRecord
  2
Amzigzag
 70
     0
  3
/\/-/\/-/\/-/\/-/\/-/\/
 72
    65
 73
     2
 40
11.0001
 49
0.0001
 74
     4
 75
   136
340
285BF
 46
0.04
 50
0.0
 44
0.0
 45
0.0
 49
-11.0
 74
     0
  0
LTYPE
  5
285C4
330
5
100
AcDbSymbolTableRecord
100
AcDbLinetypeTableRecord
  2
ACISOWELD
 70
     0
  3
_ _ _ _ _
 72
    65
 73
     2
 40
2.0
 49
2.0
 74
     0
 49
-1.0
 74
     0
  0
LTYPE
  5
285C5
330
5
100
AcDbSymbolTableRecord
100
AcDbLinetypeTableRecord
  2
ACISOTGL
 70
     0
  3
_ _ _ _ _
 72
    65
 73
     2
 40
3.0
 49
2.0
 74
     0
 49
-1.0
 74
     0
  0
LTYPE
  5
285C6
330
5
100
AcDbSymbolTableRecord
100
AcDbLinetypeTableRecord
  2
ACISOTGB
 70
     0
  3
__ . . __ . .
 72
    65
 73
     6
 40
9.0
 49
4.0
 74
     0
 49
-1.0
 74
     0
 49
1.0
 74
     0
 49
-1.0
 74
     0
 49
1.0
 74
     0
 49
-1.0
 74
     0
  0
ENDTAB
  0
TABLE
  2
LAYER
  5
2
102
{ACAD_XDICTIONARY
360
20B7A
102
}
330
0
100
AcDbSymbolTable
 70
     7
  0
LAYER
  5
10
102
{ACAD_XDICTIONARY
360
245A6
102
}
330
2
100
AcDbSymbolTableRecord
100
AcDbLayerTableRecord
  2
0
 70
     0
 62
     7
  6
Continuous
370
    -3
390
F
347
241C0
348
0
  0
LAYER
  5
ED3
102
{ACAD_XDICTIONARY
360
245AE
102
}
330
2
100
AcDbSymbolTableRecord
100
AcDbLayerTableRecord
  2
4
 70
     0
 62
     4
  6
Continuous
370
    -3
390
F
347
241C0
348
0
  0
LAYER
  5
ED4
330
2
100
AcDbSymbolTableRecord
100
AcDbLayerTableRecord
  2
Defpoints
 70
     0
 62
     7
  6
Continuous
290
     0
370
    -3
390
F
347
241C0
348
0
  0
LAYER
  5
F8C
102
{ACAD_XDICTIONARY
360
245B2
102
}
330
2
100
AcDbSymbolTableRecord
100
AcDbLayerTableRecord
  2
AM_5
 70
     0
 62
     3
  6
Continuous
370
    25
390
F
347
241C0
348
0
  0
LAYER
  5
1927E
102
{ACAD_XDICTIONARY
360
245F4
102
}
330
2
100
AcDbSymbolTableRecord
100
AcDbLayerTableRecord
  2
Visibile (ISO)
 70
     0
 62
     7
  6
Continuous
370
    50
390
F
347
241C0
348
0
  0
LAYER
  5
250C7
330
2
100
AcDbSymbolTableRecord
100
AcDbLayerTableRecord
  2
CARTIGLIO
 70
     0
 62
     7
  6
Continuous
370
    -3
390
F
347
241C0
348
0
  0
LAYER
  5
285F0
330
2
100
AcDbSymbolTableRecord
100
AcDbLayerTableRecord
  2
5
 70
     0
 62
     3
  6
Continuous
370
     0
390
F
347
241C0
348
0
1001
AcAecLayerStandard
1000

1000

  0
ENDTAB
  0
TABLE
  2
STYLE
  5
3
330
0
100
AcDbSymbolTable
 70
     6
  0
STYLE
  5
11
330
3
100
AcDbSymbolTableRecord
100
AcDbTextStyleTableRecord
  2
Standard
 70
     0
 40
0.0
 41
1.0
 50
0.0
 71
     0
 42
2.5
  3
ISOCP.SHX
  4

  0
STYLE
  5
ED6
330
3
100
AcDbSymbolTableRecord
100
AcDbTextStyleTableRecord
  2
ROMANS
 70
     0
 40
10.0
 41
0.9
 50
0.0
 71
     0
 42
10.0
  3
romans
  4

  0
STYLE
  5
250C8
330
3
100
AcDbSymbolTableRecord
100
AcDbTextStyleTableRecord
  2
VERDANA
 70
     0
 40
0.0
 41
1.0
 50
0.0
 71
     0
 42
3.5
  3
verdana.ttf
  4

1001
ACAD
1000
Verdana
1071
       34
  0
STYLE
  5
285BF
330
3
100
AcDbSymbolTableRecord
100
AcDbTextStyleTableRecord
  2

 70
     1
 40
0.0
 41
1.0
 50
0.0
 71
     0
 42
2.5
  3
genltshp.shx
  4

  0
STYLE
  5
285C2
330
3
100
AcDbSymbolTableRecord
100
AcDbTextStyleTableRecord
  2
ACISOTS
 70
     0
 40
1.0
 41
1.0
 50
0.0
 71
     0
 42
2.5
  3
isocp.shx
  4

  0
STYLE
  5
285C3
330
3
100
AcDbSymbolTableRecord
100
AcDbTextStyleTableRecord
  2
ACISOGDT
 70
     0
 40
0.0
 41
1.0
 50
0.0
 71
     0
 42
2.5
  3
amgdt.shx
  4

  0
ENDTAB
  0
TABLE
  2
VIEW
  5
6
330
0
100
AcDbSymbolTable
 70
     1
  0
VIEW
  5
17B60
330
6
100
AcDbSymbolTableRecord
100
AcDbViewTableRecord
  2
OLE1
 70
     0
 40
3194.948357208526
 10
18124.8211261711
 20
4006.201417802634
 41
4895.94373417215
 11
0.0
 21
0.0
 31
1.0
 12
0.0
 22
0.0
 32
0.0
 42
50.0
 43
0.0
 44
0.0
 50
0.0
 71
     0
281
     0
 72
     0
 73
     0
348
241C7
  0
ENDTAB
  0
TABLE
  2
UCS
  5
7
330
0
100
AcDbSymbolTable
 70
     0
  0
ENDTAB
  0
TABLE
  2
APPID
  5
9
330
0
100
AcDbSymbolTable
 70
    55
  0
APPID
  5
12
330
9
100
AcDbSymbolTableRecord
100
AcDbRegAppTableRecord
  2
ACAD
 70
     0
  0
APPID
  5
2C
330
9
100
AcDbSymbolTableRecord
100
AcDbRegAppTableRecord
  2
MCAD_NO_VIS
 70
     0
  0
APPID
  5
2D
330
9
100
AcDbSymbolTableRecord
100
AcDbRegAppTableRecord
  2
ACAD_TEMP_GRAPHIC
 70
     0
  0
APPID
  5
ED8
330
9
100
AcDbSymbolTableRecord
100
AcDbRegAppTableRecord
  2
GENIUS_GENDTOL_13
 70
     0
  0
APPID
  5
ED9
330
9
100
AcDbSymbolTableRecord
100
AcDbRegAppTableRecord
  2
GENIUS_GENCFG_13
 70
     0
  0
APPID
  5
EDA
330
9
100
AcDbSymbolTableRecord
100
AcDbRegAppTableRecord
  2
GENIUS_GENCFG0_13
 70
     0
  0
APPID
  5
EDB
330
9
100
AcDbSymbolTableRecord
100
AcDbRegAppTableRecord
  2
GENIUS_GENCFG1_13
 70
     0
  0
APPID
  5
EDC
330
9
100
AcDbSymbolTableRecord
100
AcDbRegAppTableRecord
  2
GENIUS_GENCFG2_13
 70
     0
  0
APPID
  5
EDD
330
9
100
AcDbSymbolTableRecord
100
AcDbRegAppTableRecord
  2
GENIUS_GENCFG3_13
 70
     0
  0
APPID
  5
EDE
330
9
100
AcDbSymbolTableRecord
100
AcDbRegAppTableRecord
  2
GENIUS_GENCFG4_13
 70
     0
  0
APPID
  5
EDF
330
9
100
AcDbSymbolTableRecord
100
AcDbRegAppTableRecord
  2
GENIUS_GEVCFG0_13
 70
     0
  0
APPID
  5
EE0
330
9
100
AcDbSymbolTableRecord
100
AcDbRegAppTableRecord
  2
GENIUS_GENOENT_13
 70
     0
  0
APPID
  5
2AF2
330
9
100
AcDbSymbolTableRecord
100
AcDbRegAppTableRecord
  2
GENIUS_GENDIMSH_14
 70
     0
  0
APPID
  5
2F7B
330
9
100
AcDbSymbolTableRecord
100
AcDbRegAppTableRecord
  2
GEV_VCCNULL_SWITCH_OFF
 70
     0
  0
APPID
  5
2F7C
330
9
100
AcDbSymbolTableRecord
100
AcDbRegAppTableRecord
  2
GENIUS_GENHINW_13
 70
     0
  0
APPID
  5
2F7D
330
9
100
AcDbSymbolTableRecord
100
AcDbRegAppTableRecord
  2
GENIUS_GENOBJ_13
 70
     0
  0
APPID
  5
2F7E
330
9
100
AcDbSymbolTableRecord
100
AcDbRegAppTableRecord
  2
GENIUS_GENODEF_13
 70
     0
  0
APPID
  5
2F7F
330
9
100
AcDbSymbolTableRecord
100
AcDbRegAppTableRecord
  2
GENIUS_GENOLIS_13
 70
     0
  0
APPID
  5
2F80
330
9
100
AcDbSymbolTableRecord
100
AcDbRegAppTableRecord
  2
GENIUS_GENOREF_13
 70
     0
  0
APPID
  5
2F81
330
9
100
AcDbSymbolTableRecord
100
AcDbRegAppTableRecord
  2
GENIUS_GENOBJ-N-LEADER_13
 70
     0
  0
APPID
  5
2F82
330
9
100
AcDbSymbolTableRecord
100
AcDbRegAppTableRecord
  2
AD_DRAW
 70
     0
  0
APPID
  5
2F83
330
9
100
AcDbSymbolTableRecord
100
AcDbRegAppTableRecord
  2
DESIGNERASSEMBLIES
 70
     0
  0
APPID
  5
2F84
330
9
100
AcDbSymbolTableRecord
100
AcDbRegAppTableRecord
  2
ASURF_PCURVE_APPNAME
 70
     0
  0
APPID
  5
2F85
330
9
100
AcDbSymbolTableRecord
100
AcDbRegAppTableRecord
  2
GENIUS_GE3CFG0_13
 70
     0
  0
APPID
  5
2F86
330
9
100
AcDbSymbolTableRecord
100
AcDbRegAppTableRecord
  2
GENIUS_GENCFG5_13
 70
     0
  0
APPID
  5
2F87
330
9
100
AcDbSymbolTableRecord
100
AcDbRegAppTableRecord
  2
GENIUS_GE3MANIP_13
 70
     0
  0
APPID
  5
2F88
330
9
100
AcDbSymbolTableRecord
100
AcDbRegAppTableRecord
  2
GENIUS_GE3SECT_13
 70
     0
  0
APPID
  5
2F89
330
9
100
AcDbSymbolTableRecord
100
AcDbRegAppTableRecord
  2
GENIUS_GENTRA_14
 70
     0
  0
APPID
  5
2F8A
330
9
100
AcDbSymbolTableRecord
100
AcDbRegAppTableRecord
  2
GENIUS_GENSCREG_15
 70
     0
  0
APPID
  5
2F8B
330
9
100
AcDbSymbolTableRecord
100
AcDbRegAppTableRecord
  2
GENIUS_GENOBJ-N-SDF_13
 70
     0
  0
APPID
  5
4FEA
330
9
100
AcDbSymbolTableRecord
100
AcDbRegAppTableRecord
  2
DCO15
 70
     0
  0
APPID
  5
6AFA
330
9
100
AcDbSymbolTableRecord
100
AcDbRegAppTableRecord
  2
GENIUS_GENREC_13
 70
     0
  0
APPID
  5
6AFB
330
9
100
AcDbSymbolTableRecord
100
AcDbRegAppTableRecord
  2
GENIUS_GENOBJ-N-REC_13
 70
     0
  0
APPID
  5
E5B3
330
9
100
AcDbSymbolTableRecord
100
AcDbRegAppTableRecord
  2
ACATTRIBSERVICES
 70
     0
  0
APPID
  5
E5E5
330
9
100
AcDbSymbolTableRecord
100
AcDbRegAppTableRecord
  2
ACADM_DIM_EDIT
 70
     0
  0
APPID
  5
E5E6
330
9
100
AcDbSymbolTableRecord
100
AcDbRegAppTableRecord
  2
AMDT_DM_ADJ
 70
     0
  0
APPID
  5
136C7
330
9
100
AcDbSymbolTableRecord
100
AcDbRegAppTableRecord
  2
GENIUS_GENREC_14
 70
     0
  0
APPID
  5
151D0
330
9
100
AcDbSymbolTableRecord
100
AcDbRegAppTableRecord
  2
GENIUS_GENOBJ-N-FIL_13
 70
     0
  0
APPID
  5
17B61
330
9
100
AcDbSymbolTableRecord
100
AcDbRegAppTableRecord
  2
GENIUS_GENOBJ-N-HTC_13
 70
     0
  0
APPID
  5
17B62
330
9
100
AcDbSymbolTableRecord
100
AcDbRegAppTableRecord
  2
GENIUS_GENHATCH_13
 70
     0
  0
APPID
  5
17B63
330
9
100
AcDbSymbolTableRecord
100
AcDbRegAppTableRecord
  2
GENIUS_GENOBJ-N-CEN_13
 70
     0
  0
APPID
  5
17B64
330
9
100
AcDbSymbolTableRecord
100
AcDbRegAppTableRecord
  2
GENIUS_GENCEN_19
 70
     0
  0
APPID
  5
19F82
330
9
100
AcDbSymbolTableRecord
100
AcDbRegAppTableRecord
  2
ACAD_DSTYLE_DIMTEXT_FILL
 70
     0
  0
APPID
  5
2451E
330
9
100
AcDbSymbolTableRecord
100
AcDbRegAppTableRecord
  2
ACAD_MLEADERVER
 70
     0
  0
APPID
  5
24BED
330
9
100
AcDbSymbolTableRecord
100
AcDbRegAppTableRecord
  2
ACAD_EXEMPT_FROM_CAD_STANDARDS
 70
     0
  0
APPID
  5
24C13
330
9
100
AcDbSymbolTableRecord
100
AcDbRegAppTableRecord
  2
ACAD_DSTYLE_DIMINSPECT
 70
     0
  0
APPID
  5
24C7F
330
9
100
AcDbSymbolTableRecord
100
AcDbRegAppTableRecord
  2
ACAD_DSTYLE_DIMRADIAL_EXTENSION
 70
     0
  0
APPID
  5
24E22
330
9
100
AcDbSymbolTableRecord
100
AcDbRegAppTableRecord
  2
ACAD_NAV_VCDISPLAY
 70
     0
  0
APPID
  5
24E2E
330
9
100
AcDbSymbolTableRecord
100
AcDbRegAppTableRecord
  2
AcadAnnoPO
 70
     0
  0
APPID
  5
24F14
330
9
100
AcDbSymbolTableRecord
100
AcDbRegAppTableRecord
  2
ACAD_DSTYLE_DIMJAG
 70
     0
  0
APPID
  5
24F15
330
9
100
AcDbSymbolTableRecord
100
AcDbRegAppTableRecord
  2
ACAD_DSTYLE_DIMBREAK
 70
     0
  0
APPID
  5
250C9
330
9
100
AcDbSymbolTableRecord
100
AcDbRegAppTableRecord
  2
GENIUS_GENFIL_13
 70
     0
  0
APPID
  5
250CA
330
9
100
AcDbSymbolTableRecord
100
AcDbRegAppTableRecord
  2
GENIUS_GENOBJ-N-CHA_13
 70
     0
  0
APPID
  5
250CB
330
9
100
AcDbSymbolTableRecord
100
AcDbRegAppTableRecord
  2
AcAecLayerStandard
 70
     0
  0
APPID
  5
281B9
330
9
100
AcDbSymbolTableRecord
100
AcDbRegAppTableRecord
  2
ACAD_DSTYLE_DIMANGULAR_EXTENSION
 70
     0
  0
ENDTAB
  0
TABLE
  2
DIMSTYLE
  5
A
330
0
100
AcDbSymbolTable
 70
    12
100
AcDbDimStyleTable
  0
DIMSTYLE
105
2F71
330
A
100
AcDbSymbolTableRecord
100
AcDbDimStyleTableRecord
  2
STANDARD
 70
     0
178
     0
340
11
  0
DIMSTYLE
105
19282
102
{ACAD_REACTORS
330
2859D
102
}
330
A
100
AcDbSymbolTableRecord
100
AcDbDimStyleTableRecord
  2
AM_ISO
 70
     0
  4
"
 40
4.0
 41
2.5
 42
1.0
 43
10.0
 44
1.0
 47
0.1
 48
0.1
 73
     0
 74
     0
 77
     1
 78
     8
 79
     2
140
3.5
141
0.0
143
0.0393701
146
0.71
147
1.5
172
     1
176
     3
177
     3
271
     2
178
     2
271
     2
272
     2
283
     0
284
     8
340
ED6
371
    -1
372
    -1
  0
DIMSTYLE
105
19283
102
{ACAD_REACTORS
330
277DA
102
}
330
A
100
AcDbSymbolTableRecord
100
AcDbDimStyleTableRecord
  2
AM_ISO$3
 70
     0
  4
"
 40
4.0
 41
2.5
 42
1.0
 43
10.0
 44
1.0
 47
0.1
 48
0.1
 73
     0
 77
     1
 78
     8
 79
     2
140
3.5
141
0.0
143
0.0393701
146
0.71
147
1.5
176
     3
177
     3
271
     2
178
     2
271
     2
272
     2
283
     0
284
     8
288
     1
289
     0
340
ED6
371
    -1
372
    -1
  0
DIMSTYLE
105
19284
330
A
100
AcDbSymbolTableRecord
100
AcDbDimStyleTableRecord
  2
AM_ISO$4
 70
     0
  4
"
 40
4.0
 41
2.5
 42
1.0
 43
10.0
 44
1.0
 47
0.1
 48
0.1
 73
     0
 77
     1
 78
     8
 79
     2
140
3.5
141
0.0
143
0.0393701
146
0.71
147
1.5
176
     3
177
     3
271
     2
178
     2
271
     2
272
     2
283
     0
284
     8
288
     1
289
     0
340
ED6
371
    -1
372
    -1
  0
DIMSTYLE
105
19F65
102
{ACAD_REACTORS
330
277DE
102
}
330
A
100
AcDbSymbolTableRecord
100
AcDbDimStyleTableRecord
  2
AM_ISO$0
 70
     0
  4
"
 40
4.0
 41
2.5
 42
1.0
 43
10.0
 44
1.0
 47
0.1
 48
0.1
 73
     0
 74
     0
 77
     1
 78
     8
 79
     2
140
3.5
141
0.0
143
0.0393701
146
0.71
147
1.5
172
     1
176
     3
177
     3
271
     2
178
     2
271
     2
272
     2
283
     0
284
     8
340
ED6
371
    -1
372
    -1
  0
DIMSTYLE
105
1A0A6
102
{ACAD_REACTORS
330
28242
102
}
330
A
100
AcDbSymbolTableRecord
100
AcDbDimStyleTableRecord
  2
AM_ISO$2
 70
     0
  4
"
 40
4.0
 41
2.5
 42
1.0
 43
10.0
 44
1.0
 47
0.1
 48
0.1
 73
     0
 74
     0
 77
     1
 78
     8
 79
     2
140
3.5
141
0.0
143
0.0393701
146
0.71
147
1.5
172
     1
176
     3
177
     3
271
     2
178
     2
271
     2
272
     2
283
     0
284
     8
340
ED6
371
    -1
372
    -1
  0
DIMSTYLE
105
285AE
330
A
100
AcDbSymbolTableRecord
100
AcDbDimStyleTableRecord
  2
AM_ISO$6
 70
     0
  4
"
 40
4.0
 41
2.5
 42
1.0
 43
10.0
 44
1.0
 47
0.1
 48
0.1
 90
        1
 73
     0
 74
     0
 78
     8
 79
     2
140
3.5
141
0.0
143
0.0393701
146
0.71
147
1.5
172
     1
176
     3
177
     3
271
     2
178
     2
271
     2
272
     2
283
     0
284
     8
340
ED6
371
    -1
372
    -1
1001
ACAD_DSTYLE_DIMBREAK
1070
   391
1040
3.75
1001
ACAD_DSTYLE_DIMJAG
1070
   388
1040
1.5
  0
DIMSTYLE
105
285AF
330
A
100
AcDbSymbolTableRecord
100
AcDbDimStyleTableRecord
  2
AM_ISO$7
 70
     0
  4
"
 40
4.0
 41
2.5
 42
1.0
 43
10.0
 44
1.0
 47
0.1
 48
0.1
 90
        1
 73
     0
 74
     0
 77
     1
 78
     8
 79
     2
140
3.5
141
0.0
143
0.0393701
146
0.71
147
1.5
172
     1
176
     3
177
     3
271
     2
178
     2
271
     2
272
     2
283
     0
284
     8
340
ED6
371
    -1
372
    -1
1001
ACAD_DSTYLE_DIMBREAK
1070
   391
1040
3.75
1001
ACAD_DSTYLE_DIMJAG
1070
   388
1040
1.5
  0
DIMSTYLE
105
285B0
330
A
100
AcDbSymbolTableRecord
100
AcDbDimStyleTableRecord
  2
AM_ISO$SF
 70
     0
  4
"
 40
4.0
 41
2.5
 42
1.0
 43
10.0
 44
1.0
 47
0.1
 48
0.1
 90
        1
 73
     0
 74
     0
 75
     1
 76
     1
 77
     1
 78
     8
 79
     2
140
3.5
141
0.0
143
0.0393701
146
0.71
147
1.5
172
     1
176
     3
177
     3
271
     2
178
     2
271
     2
272
     2
283
     0
284
     8
340
ED6
371
    -1
372
    -1
1001
ACAD_DSTYLE_DIMBREAK
1070
   391
1040
3.75
1001
ACAD_DSTYLE_DIMJAG
1070
   388
1040
1.5
  0
DIMSTYLE
105
285B5
330
A
100
AcDbSymbolTableRecord
100
AcDbDimStyleTableRecord
  2
AM_ISO$SH
 70
     0
  4
"
 40
4.0
 41
2.5
 42
1.0
 43
10.0
 44
1.0
 47
0.1
 48
0.1
 90
        1
 73
     0
 74
     0
 75
     1
 76
     1
 77
     1
 78
     8
 79
     2
140
3.5
141
0.0
143
0.0393701
144
2.0
146
0.71
147
1.5
172
     1
173
     1
176
     3
177
     3
271
     2
178
     2
271
     2
272
     2
283
     0
284
     8
340
ED6
343
285B1
371
    -1
372
    -1
1001
ACAD_DSTYLE_DIMBREAK
1070
   391
1040
3.75
1001
ACAD_DSTYLE_DIMJAG
1070
   388
1040
1.5
  0
DIMSTYLE
105
285F1
330
A
100
AcDbSymbolTableRecord
100
AcDbDimStyleTableRecord
  2
GEN-ISO
 70
     0
 40
5.0
 41
1.8
 42
0.1
 43
0.1
 44
0.5
 47
0.1
 48
0.1
 73
     0
 74
     0
 77
     1
 78
     8
140
1.5
141
0.0
143
0.0393701
146
0.71
147
0.5
172
     1
176
   256
177
   256
271
     2
178
     2
271
     2
272
     3
274
     4
283
     0
340
11
  0
DIMSTYLE
105
286A2
330
A
100
AcDbSymbolTableRecord
100
AcDbDimStyleTableRecord
  2
ISO-25
 70
     0
 41
2.5
 42
0.625
 43
3.75
 44
1.25
 73
     0
 74
     0
 77
     1
 78
     8
140
2.5
141
2.5
143
0.03937007874016
147
0.625
171
     3
172
     1
178
     0
271
     2
272
     2
274
     3
278
    44
283
     0
284
     8
340
11
  0
ENDTAB
  0
TABLE
  2
BLOCK_RECORD
  5
1
330
0
100
AcDbSymbolTable
 70
    28
  0
BLOCK_RECORD
  5
1F
102
{ACAD_XDICTIONARY
360
55
102
}
330
1
100
AcDbSymbolTableRecord
100
AcDbBlockTableRecord
  2
*Model_Space
340
22
 70
     0
280
     1
281
     0
  0
BLOCK_RECORD
  5
1B
330
1
100
AcDbSymbolTableRecord
100
AcDbBlockTableRecord
  2
*Paper_Space
340
1E
 70
     0
280
     1
281
     0
  0
BLOCK_RECORD
  5
23
330
1
100
AcDbSymbolTableRecord
100
AcDbBlockTableRecord
  2
*Paper_Space0
340
26
 70
     0
280
     1
281
     0
  0
BLOCK_RECORD
  5
277E2
102
{ACAD_REACTORS
330
27806
102
}
330
1
100
AcDbSymbolTableRecord
100
AcDbBlockTableRecord
  2
*U1
340
0
102
{BLKREFS
331
277FD
331
277FE
102
}
 70
     0
280
     1
281
     0
  0
BLOCK_RECORD
  5
27808
102
{ACAD_REACTORS
330
2782A
102
}
330
1
100
AcDbSymbolTableRecord
100
AcDbBlockTableRecord
  2
*U3
340
0
102
{BLKREFS
331
27821
331
27822
102
}
 70
     0
280
     1
281
     0
  0
BLOCK_RECORD
  5
2782C
330
1
100
AcDbSymbolTableRecord
100
AcDbBlockTableRecord
  2
*D5
340
0
 70
     0
280
     1
281
     0
  0
BLOCK_RECORD
  5
27838
330
1
100
AcDbSymbolTableRecord
100
AcDbBlockTableRecord
  2
*D6
340
0
 70
     0
280
     1
281
     0
  0
BLOCK_RECORD
  5
27844
330
1
100
AcDbSymbolTableRecord
100
AcDbBlockTableRecord
  2
*D7
340
0
 70
     0
280
     1
281
     0
  0
BLOCK_RECORD
  5
27850
330
1
100
AcDbSymbolTableRecord
100
AcDbBlockTableRecord
  2
*D8
340
0
 70
     0
280
     1
281
     0
  0
BLOCK_RECORD
  5
27859
330
1
100
AcDbSymbolTableRecord
100
AcDbBlockTableRecord
  2
*D9
340
0
 70
     0
280
     1
281
     0
  0
BLOCK_RECORD
  5
27862
330
1
100
AcDbSymbolTableRecord
100
AcDbBlockTableRecord
  2
*D10
340
0
 70
     0
280
     1
281
     0
  0
BLOCK_RECORD
  5
2786B
330
1
100
AcDbSymbolTableRecord
100
AcDbBlockTableRecord
  2
*D11
340
0
 70
     0
280
     1
281
     0
  0
BLOCK_RECORD
  5
27874
330
1
100
AcDbSymbolTableRecord
100
AcDbBlockTableRecord
  2
*D12
340
0
 70
     0
280
     1
281
     0
  0
BLOCK_RECORD
  5
27DED
330
1
100
AcDbSymbolTableRecord
100
AcDbBlockTableRecord
  2
*D22
340
0
 70
     0
280
     1
281
     0
  0
BLOCK_RECORD
  5
27E4A
330
1
100
AcDbSymbolTableRecord
100
AcDbBlockTableRecord
  2
*D23
340
0
 70
     0
280
     1
281
     0
  0
BLOCK_RECORD
  5
27EB7
330
1
100
AcDbSymbolTableRecord
100
AcDbBlockTableRecord
  2
*D24
340
0
 70
     0
280
     1
281
     0
  0
BLOCK_RECORD
  5
27F25
330
1
100
AcDbSymbolTableRecord
100
AcDbBlockTableRecord
  2
*D25
340
0
 70
     0
280
     1
281
     0
  0
BLOCK_RECORD
  5
28037
330
1
100
AcDbSymbolTableRecord
100
AcDbBlockTableRecord
  2
*D26
340
0
 70
     0
280
     1
281
     0
  0
BLOCK_RECORD
  5
28067
330
1
100
AcDbSymbolTableRecord
100
AcDbBlockTableRecord
  2
*D27
340
0
 70
     0
280
     1
281
     0
  0
BLOCK_RECORD
  5
28097
330
1
100
AcDbSymbolTableRecord
100
AcDbBlockTableRecord
  2
*D28
340
0
 70
     0
280
     1
281
     0
  0
BLOCK_RECORD
  5
280C7
330
1
100
AcDbSymbolTableRecord
100
AcDbBlockTableRecord
  2
*D29
340
0
 70
     0
280
     1
281
     0
  0
BLOCK_RECORD
  5
28243
330
1
100
AcDbSymbolTableRecord
100
AcDbBlockTableRecord
  2
*D30
340
0
 70
     0
280
     1
281
     0
  0
BLOCK_RECORD
  5
2828A
330
1
100
AcDbSymbolTableRecord
100
AcDbBlockTableRecord
  2
*D31
340
0
 70
     0
280
     1
281
     0
  0
BLOCK_RECORD
  5
282DD
330
1
100
AcDbSymbolTableRecord
100
AcDbBlockTableRecord
  2
*D32
340
0
 70
     0
280
     1
281
     0
  0
BLOCK_RECORD
  5
28324
330
1
100
AcDbSymbolTableRecord
100
AcDbBlockTableRecord
  2
*D33
340
0
 70
     0
280
     1
281
     0
  0
BLOCK_RECORD
  5
2858F
330
1
100
AcDbSymbolTableRecord
100
AcDbBlockTableRecord
  2
*U34
340
0
 70
     0
280
     1
281
     0
  0
BLOCK_RECORD
  5
285B1
330
1
100
AcDbSymbolTableRecord
100
AcDbBlockTableRecord
  2
GENAXEH
340
0
 70
     0
280
     1
281
     0
  0
BLOCK_RECORD
  5
285CF
330
1
100
AcDbSymbolTableRecord
100
AcDbBlockTableRecord
  2
a
340
0
310
2800000020000000200000000100080000000000000400000000000000000000000000000000000000000000000080000080000000808000800000008000800080800000C0C0C000C0DCC000F0CAA6000020400000206000002080000020A0000020C0000020E00000400000004020000040400000406000004080000040A0
310
000040C0000040E00000600000006020000060400000606000006080000060A0000060C0000060E00000800000008020000080400000806000008080000080A0000080C0000080E00000A0000000A0200000A0400000A0600000A0800000A0A00000A0C00000A0E00000C0000000C0200000C0400000C0600000C0800000C0
310
A00000C0C00000C0E00000E0000000E0200000E0400000E0600000E0800000E0A00000E0C00000E0E00040000000400020004000400040006000400080004000A0004000C0004000E00040200000402020004020400040206000402080004020A0004020C0004020E000404000004040200040404000404060004040800040
310
40A0004040C0004040E00040600000406020004060400040606000406080004060A0004060C0004060E00040800000408020004080400040806000408080004080A0004080C0004080E00040A0000040A0200040A0400040A0600040A0800040A0A00040A0C00040A0E00040C0000040C0200040C0400040C0600040C08000
310
40C0A00040C0C00040C0E00040E0000040E0200040E0400040E0600040E0800040E0A00040E0C00040E0E00080000000800020008000400080006000800080008000A0008000C0008000E00080200000802020008020400080206000802080008020A0008020C0008020E00080400000804020008040400080406000804080
310
008040A0008040C0008040E00080600000806020008060400080606000806080008060A0008060C0008060E00080800000808020008080400080806000808080008080A0008080C0008080E00080A0000080A0200080A0400080A0600080A0800080A0A00080A0C00080A0E00080C0000080C0200080C0400080C0600080C0
310
800080C0A00080C0C00080C0E00080E0000080E0200080E0400080E0600080E0800080E0A00080E0C00080E0E000C0000000C0002000C0004000C0006000C0008000C000A000C000C000C000E000C0200000C0202000C0204000C0206000C0208000C020A000C020C000C020E000C0400000C0402000C0404000C0406000C0
310
408000C040A000C040C000C040E000C0600000C0602000C0604000C0606000C0608000C060A000C060C000C060E000C0800000C0802000C0804000C0806000C0808000C080A000C080C000C080E000C0A00000C0A02000C0A04000C0A06000C0A08000C0A0A000C0A0C000C0A0E000C0C00000C0C02000C0C04000C0C06000
310
C0C08000C0C0A000F0FBFF00A4A0A000808080000000FF0000FF000000FFFF00FF000000FF00FF00FFFF0000FFFFFF0049494949494949494949494949494949494949494949494949494949494949494949494949494949494949494949494949494949494949494949494949494949494949494949494949494949494949
310
49494949494949494949494949494949494949494949494949494949494949494949494949494949494949494949494949494949494949494949494949494949494949494949494949494949494949494949494949494949494949494949494949494949494949494949494949494949494949494949494949494949494949
310
49494949494949494949494949494949494949494949494949494949494949494949494949494949494949494949494949494949494949494949494949494949494949494949494949494949494949494949494949494949494949494949494949494949494949494949494949494949494949494949494949494949494949
310
49494949494949494949494949494949494949494949494949494949494949494949494949494949494949494949494949494949494949494949494949494949494949494949494949494949494949494949494949FFFFFFFFFFFFFFFFFFFFFFFFFFFFFFFFFFFFFFFFFFFFFFFFFFFFFFFFFF494949FFFEFEFEFAFAFAFEFEFE
310
FEFEFEFEFEFEFEFEFEFEFEFEFEFEFEFE4949FF494949FFFEFEFEFAFAFAFEFEFEFEFEFEFEFEFEFEFEFEFEFEFEFEFEFEFE4949FF494949FF4949FEFEFEFEFEFEFEFEFEFEFEFEFEFEFEFEFEFEFEFEFEFE494949FF494949FFFEFEFEFEFEFEFEFEFEFEFEFEFEFEFEFEFEFEFEFEFEFEFEFEFEFEFEFF494949FFFFFFFFFFFFFFFFFF
310
FFFFFFFFFFFFFFFFFFFFFFFFFFFFFFFFFFFFFFFF4949494949494949494949494949494949494949494949494949494949494949494949494949494949494949494949494949494949494949494949494949494949494949494949494949494949494949494949494949494949494949494949494949494949494949494949
310
49494949494949494949494949494949494949494949494949494949494949494949494949494949494949494949494949494949494949494949494949494949494949494949494949494949494949494949494949494949494949494949494949494949494949494949494949494949494949494949494949494949494949
310
49494949494949494949494949494949494949494949494949494949494949494949494949494949494949494949494949494949494949494949494949494949494949494949494949494949494949494949494949494949494949494949494949494949494949494949494949494949494949494949494949494949494949
310
4949494949494949494949494949494949494949494949494949494949494949494949494949494949494949494949494949494949494949
 70
     4
280
     1
281
     0
  0
BLOCK_RECORD
  5
285DC
330
1
100
AcDbSymbolTableRecord
100
AcDbBlockTableRecord
  2
b
340
0
310
2800000020000000200000000100080000000000000400000000000000000000000000000000000000000000000080000080000000808000800000008000800080800000C0C0C000C0DCC000F0CAA6000020400000206000002080000020A0000020C0000020E00000400000004020000040400000406000004080000040A0
310
000040C0000040E00000600000006020000060400000606000006080000060A0000060C0000060E00000800000008020000080400000806000008080000080A0000080C0000080E00000A0000000A0200000A0400000A0600000A0800000A0A00000A0C00000A0E00000C0000000C0200000C0400000C0600000C0800000C0
310
A00000C0C00000C0E00000E0000000E0200000E0400000E0600000E0800000E0A00000E0C00000E0E00040000000400020004000400040006000400080004000A0004000C0004000E00040200000402020004020400040206000402080004020A0004020C0004020E000404000004040200040404000404060004040800040
310
40A0004040C0004040E00040600000406020004060400040606000406080004060A0004060C0004060E00040800000408020004080400040806000408080004080A0004080C0004080E00040A0000040A0200040A0400040A0600040A0800040A0A00040A0C00040A0E00040C0000040C0200040C0400040C0600040C08000
310
40C0A00040C0C00040C0E00040E0000040E0200040E0400040E0600040E0800040E0A00040E0C00040E0E00080000000800020008000400080006000800080008000A0008000C0008000E00080200000802020008020400080206000802080008020A0008020C0008020E00080400000804020008040400080406000804080
310
008040A0008040C0008040E00080600000806020008060400080606000806080008060A0008060C0008060E00080800000808020008080400080806000808080008080A0008080C0008080E00080A0000080A0200080A0400080A0600080A0800080A0A00080A0C00080A0E00080C0000080C0200080C0400080C0600080C0
310
800080C0A00080C0C00080C0E00080E0000080E0200080E0400080E0600080E0800080E0A00080E0C00080E0E000C0000000C0002000C0004000C0006000C0008000C000A000C000C000C000E000C0200000C0202000C0204000C0206000C0208000C020A000C020C000C020E000C0400000C0402000C0404000C0406000C0
310
408000C040A000C040C000C040E000C0600000C0602000C0604000C0606000C0608000C060A000C060C000C060E000C0800000C0802000C0804000C0806000C0808000C080A000C080C000C080E000C0A00000C0A02000C0A04000C0A06000C0A08000C0A0A000C0A0C000C0A0E000C0C00000C0C02000C0C04000C0C06000
310
C0C08000C0C0A000F0FBFF00A4A0A000808080000000FF0000FF000000FFFF00FF000000FF00FF00FFFF0000FFFFFF004949494949494949494949494949494949494949494949494949494949494949494949494949494949494949494949494949494949494949494949494949494949494949494949494949494949FFFF
310
FFFFFFFF4949494949494949494949494949494949494949494949494949FFFE49FEFEFF4949494949494949494949494949494949494949494949494949FFFE49FEFEFF4949494949494949494949494949494949494949494949494949FFFEFEFEFEFF4949494949494949494949494949494949494949494949494949FF
310
FEFEFAFAFF4949494949494949494949494949494949494949494949494949FFFEFEFAFAFF4949494949494949494949494949494949494949494949494949FFFEFEFAFAFF4949494949494949494949494949494949494949494949494949FFFEFEFEFEFF4949494949494949494949494949494949494949494949494949
310
FFFEFEFEFEFF4949494949494949494949494949494949494949494949494949FFFEFEFEFEFF4949494949494949494949494949494949494949494949494949FFFEFEFEFEFF4949494949494949494949494949494949494949494949494949FFFEFEFEFEFF49494949494949494949494949494949494949494949494949
310
49FFFEFEFEFEFF4949494949494949494949494949494949494949494949494949FFFEFEFEFEFF4949494949494949494949494949494949494949494949494949FFFEFEFEFEFF4949494949494949494949494949494949494949494949494949FFFEFEFEFEFF494949494949494949494949494949494949494949494949
310
4949FFFEFEFEFEFF4949494949494949494949494949494949494949494949494949FFFEFEFEFEFF4949494949494949494949494949494949494949494949494949FFFEFEFEFEFF4949494949494949494949494949494949494949494949494949FFFEFEFEFEFF4949494949494949494949494949494949494949494949
310
494949FFFEFEFEFEFF4949494949494949494949494949494949494949494949494949FFFEFEFEFEFF4949494949494949494949494949494949494949494949494949FFFEFEFEFEFF4949494949494949494949494949494949494949494949494949FFFEFEFEFEFF49494949494949494949494949494949494949494949
310
49494949FFFEFEFEFEFF4949494949494949494949494949494949494949494949494949FFFE49FEFEFF4949494949494949494949494949494949494949494949494949FFFE494949FF4949494949494949494949494949494949494949494949494949FFFE494949FF494949494949494949494949494949494949494949
310
4949494949FFFFFFFFFFFF494949494949494949494949494949494949494949494949494949494949494949494949494949494949494949
 70
     4
280
     1
281
     0
  0
BLOCK_RECORD
  5
285E9
330
1
100
AcDbSymbolTableRecord
100
AcDbBlockTableRecord
  2
cornice
340
0
310
2800000020000000200000000100080000000000000400000000000000000000000000000000000000000000000080000080000000808000800000008000800080800000C0C0C000C0DCC000F0CAA6000020400000206000002080000020A0000020C0000020E00000400000004020000040400000406000004080000040A0
310
000040C0000040E00000600000006020000060400000606000006080000060A0000060C0000060E00000800000008020000080400000806000008080000080A0000080C0000080E00000A0000000A0200000A0400000A0600000A0800000A0A00000A0C00000A0E00000C0000000C0200000C0400000C0600000C0800000C0
310
A00000C0C00000C0E00000E0000000E0200000E0400000E0600000E0800000E0A00000E0C00000E0E00040000000400020004000400040006000400080004000A0004000C0004000E00040200000402020004020400040206000402080004020A0004020C0004020E000404000004040200040404000404060004040800040
310
40A0004040C0004040E00040600000406020004060400040606000406080004060A0004060C0004060E00040800000408020004080400040806000408080004080A0004080C0004080E00040A0000040A0200040A0400040A0600040A0800040A0A00040A0C00040A0E00040C0000040C0200040C0400040C0600040C08000
310
40C0A00040C0C00040C0E00040E0000040E0200040E0400040E0600040E0800040E0A00040E0C00040E0E00080000000800020008000400080006000800080008000A0008000C0008000E00080200000802020008020400080206000802080008020A0008020C0008020E00080400000804020008040400080406000804080
310
008040A0008040C0008040E00080600000806020008060400080606000806080008060A0008060C0008060E00080800000808020008080400080806000808080008080A0008080C0008080E00080A0000080A0200080A0400080A0600080A0800080A0A00080A0C00080A0E00080C0000080C0200080C0400080C0600080C0
310
800080C0A00080C0C00080C0E00080E0000080E0200080E0400080E0600080E0800080E0A00080E0C00080E0E000C0000000C0002000C0004000C0006000C0008000C000A000C000C000C000E000C0200000C0202000C0204000C0206000C0208000C020A000C020C000C020E000C0400000C0402000C0404000C0406000C0
310
408000C040A000C040C000C040E000C0600000C0602000C0604000C0606000C0608000C060A000C060C000C060E000C0800000C0802000C0804000C0806000C0808000C080A000C080C000C080E000C0A00000C0A02000C0A04000C0A06000C0A08000C0A0A000C0A0C000C0A0E000C0C00000C0C02000C0C04000C0C06000
310
C0C08000C0C0A000F0FBFF00A4A0A000808080000000FF0000FF000000FFFF00FF000000FF00FF00FFFF0000FFFFFF0049494949494949494949494949494949494949494949494949494949494949494949494949494949494949494949494949494949494949494949494949494949494949494949494949494949494949
310
494949494949494949494949494949494949494949494949494949494949494949494949494949494949494949494949494949494949494949494949494949494949494949494949494949494949494949494949494949494949494949494949494949494949494949494949494949494949FDFDFDFDFDFDFDFDFDFDFDFDFD
310
FDFDFDFDFDFDFDFDFDFDFDFDFDFDFDFDFD4949FD49494949494949494949494949494949494949494949494949494949FD4949FD49494949494949494949494949494949494949494949494949494949FD4949FD49494949494949494949494949494949494949494949494949494949FD4949FD4949494949494949494949
310
4949494949494949494949494949494949FD4949FD49494949494949494949494949494949494949494949494949494949FD4949FD49494949494949494949494949494949494949494949494949494949FD4949FD49494949494949494949494949494949494949494949494949494949FD4949FD49494949494949494949
310
494949494949494949494949494949494949FD4949FD49494949494949494949494949494949494949494949494949494949FD4949FD49494949494949494949494949494949494949494949494949494949FD4949FD49494949494949494949494949494949494949494949494949494949FD4949FD494949494949494949
310
49494949494949494949494949494949494949FD4949FD49494949494949494949494949494949494949494949494949494949FD4949FD49494949494949494949494949494949494949494949494949494949FD4949FD49494949494949494949494949494949494949494949494949494949FD4949FD4949494949494949
310
4949494949494949494949494949494949494949FD4949FD49494949494949494949494949494949494949494949494949494949FD4949FD49494949494949494949494949494949494949494949494949494949FD4949FDFDFDFDFDFDFDFDFDFDFDFDFDFDFDFDFDFDFDFDFDFDFDFDFDFDFDFDFDFD49494949494949494949
310
49494949494949494949494949494949494949494949494949494949494949494949494949494949494949494949494949494949494949494949494949494949494949494949494949494949494949494949494949494949494949494949494949494949494949494949494949494949494949494949494949494949494949
310
4949494949494949494949494949494949494949494949494949494949494949494949494949494949494949494949494949494949494949
 70
     4
280
     1
281
     0
  0
ENDTAB
  0
ENDSEC
  0
SECTION
  2
BLOCKS
  0
BLOCK
  5
20
330
1F
100
AcDbEntity
  8
0
100
AcDbBlockBegin
  2
*Model_Space
 70
     0
 10
0.0
 20
0.0
 30
0.0
  3
*Model_Space
  1

  0
ENDBLK
  5
21
330
1F
100
AcDbEntity
  8
0
100
AcDbBlockEnd
  0
BLOCK
  5
1C
330
1B
100
AcDbEntity
 67
     1
  8
0
100
AcDbBlockBegin
  2
*Paper_Space
 70
     0
 10
0.0
 20
0.0
 30
0.0
  3
*Paper_Space
  1

  0
ENDBLK
  5
1D
330
1B
100
AcDbEntity
 67
     1
  8
0
100
AcDbBlockEnd
  0
BLOCK
  5
24
330
23
100
AcDbEntity
  8
0
100
AcDbBlockBegin
  2
*Paper_Space0
 70
     0
 10
0.0
 20
0.0
 30
0.0
  3
*Paper_Space0
  1

  0
ENDBLK
  5
25
330
23
100
AcDbEntity
  8
0
100
AcDbBlockEnd
  0
BLOCK
  5
277E3
330
277E2
100
AcDbEntity
  8
0
100
AcDbBlockBegin
  2
*U1
 70
     1
 10
0.0
 20
0.0
 30
0.0
  3
*U1
  1

  0
ARC
  5
277E4
330
277E2
100
AcDbEntity
  8
Visibile (ISO)
100
AcDbCircle
 10
-44.99999999981605
 20
44.99999999983493
 30
0.0
 40
2.5
100
AcDbArc
 50
38.50251726678473
 51
270.0000000001368
  0
ARC
  5
277E5
330
277E2
100
AcDbEntity
  8
Visibile (ISO)
100
AcDbCircle
 10
-44.99999999981605
 20
44.99999999983493
 30
0.0
 40
4.5
100
AcDbArc
 50
44.07920984791053
 51
270.0000000001368
  0
ARC
  5
277E6
330
277E2
100
AcDbEntity
  8
0
100
AcDbCircle
 10
-36.7386441788899
 20
52.999999999838
 30
0.0
 40
7.0
100
AcDbArc
 50
224.0792098479105
 51
270.0000000000196
1001
GENIUS_GENODEF_13
1002
{
1000
HIER
1070
     0
1002
}
1002
{
1000
MANEDIT
1070
     0
1002
}
1002
{
1000
NOSEL
1070
     0
1002
}
1002
{
1000
BEHIND
1070
     0
1002
}
1002
{
1000
OTHER
1070
     0
1002
}
1002
{
1000
REACTOR
1002
}
1001
GENIUS_GENOBJ-N-FIL_13
1002
{
1000
OWNER
1000
GEN
1002
}
  0
ARC
  5
277E7
330
277E2
100
AcDbEntity
  8
0
100
AcDbCircle
 10
-36.7386441788899
 20
52.999999999838
 30
0.0
 40
9.0
100
AcDbArc
 50
224.0792098479105
 51
270.0000000000196
1001
GENIUS_GENODEF_13
1002
{
1000
HIER
1070
     0
1002
}
1002
{
1000
MANEDIT
1070
     0
1002
}
1002
{
1000
NOSEL
1070
     0
1002
}
1002
{
1000
BEHIND
1070
     0
1002
}
1002
{
1000
OTHER
1070
     0
1002
}
1002
{
1000
REACTOR
1002
}
1001
GENIUS_GENOBJ-N-FIL_13
1002
{
1000
OWNER
1000
GEN
1002
}
  0
LINE
  5
277E8
330
277E2
100
AcDbEntity
  8
Visibile (ISO)
100
AcDbLine
 10
-36.73864417888626
 20
43.99999999983822
 30
0.0
 11
37.00000000018446
 21
43.99999999986824
 31
0.0
  0
LINE
  5
277E9
330
277E2
100
AcDbEntity
  8
Visibile (ISO)
100
AcDbLine
 10
-36.73864417888694
 20
45.99999999983822
 30
0.0
 11
37.00000000018366
 21
45.99999999986824
 31
0.0
  0
LINE
  5
277EA
330
277E2
100
AcDbEntity
  8
0
100
AcDbLine
 10
-44.99999999980537
 20
40.49999999983493
 30
0.0
 11
-41.99999999980537
 21
40.49999999983606
 31
0.0
  0
LINE
  5
277EB
330
277E2
100
AcDbEntity
  8
0
100
AcDbLine
 10
-44.99999999981503
 20
42.49999999983493
 30
0.0
 11
-41.99999999981503
 21
42.49999999983618
 31
0.0
  0
LINE
  5
277EC
330
277E2
100
AcDbEntity
  8
0
100
AcDbLine
 10
-41.99999999981503
 20
42.49999999983618
 30
0.0
 11
-41.99999999981424
 21
40.49999999983606
 31
0.0
  0
ARC
  5
277ED
330
277E2
100
AcDbEntity
  8
Visibile (ISO)
100
AcDbCircle
 10
45.00000000022033
 20
-45.00000000012864
 30
0.0
 40
2.5
100
AcDbArc
 50
128.5025172667756
 51
0.0000000001367893
  0
ARC
  5
277EE
330
277E2
100
AcDbEntity
  8
Visibile (ISO)
100
AcDbCircle
 10
45.00000000022033
 20
-45.00000000012864
 30
0.0
 40
4.5
100
AcDbArc
 50
134.0792098479105
 51
0.0000000001367893
  0
ARC
  5
277EF
330
277E2
100
AcDbEntity
  8
0
100
AcDbCircle
 10
37.00000000021726
 20
-36.73864417920248
 30
0.0
 40
7.0
100
AcDbArc
 50
314.0792098479105
 51
0.0000000000260551
1001
GENIUS_GENODEF_13
1002
{
1000
HIER
1070
     0
1002
}
1002
{
1000
MANEDIT
1070
     0
1002
}
1002
{
1000
NOSEL
1070
     0
1002
}
1002
{
1000
BEHIND
1070
     0
1002
}
1002
{
1000
OTHER
1070
     0
1002
}
1002
{
1000
REACTOR
1002
}
1001
GENIUS_GENOBJ-N-FIL_13
1002
{
1000
OWNER
1000
GEN
1002
}
  0
ARC
  5
277F0
330
277E2
100
AcDbEntity
  8
0
100
AcDbCircle
 10
37.00000000021726
 20
-36.73864417920248
 30
0.0
 40
9.0
100
AcDbArc
 50
314.0792098479105
 51
0.0000000000260551
1001
GENIUS_GENODEF_13
1002
{
1000
HIER
1070
     0
1002
}
1002
{
1000
MANEDIT
1070
     0
1002
}
1002
{
1000
NOSEL
1070
     0
1002
}
1002
{
1000
BEHIND
1070
     0
1002
}
1002
{
1000
OTHER
1070
     0
1002
}
1002
{
1000
REACTOR
1002
}
1001
GENIUS_GENOBJ-N-FIL_13
1002
{
1000
OWNER
1000
GEN
1002
}
  0
LINE
  5
277F1
330
277E2
100
AcDbEntity
  8
Visibile (ISO)
100
AcDbLine
 10
46.00000000021703
 20
-36.73864417919884
 30
0.0
 11
46.0000000001873
 21
36.99999999987187
 31
0.0
  0
ARC
  5
277F2
330
277E2
100
AcDbEntity
  8
Visibile (ISO)
100
AcDbCircle
 10
37.0000000001873
 20
36.99999999986824
 30
0.0
 40
9.0
100
AcDbArc
 50
0.0000000000227982
 51
90.00000000002281
1001
GENIUS_GENODEF_13
1002
{
1000
HIER
1070
     0
1002
}
1002
{
1000
MANEDIT
1070
     0
1002
}
1002
{
1000
NOSEL
1070
     0
1002
}
1002
{
1000
BEHIND
1070
     0
1002
}
1002
{
1000
OTHER
1070
     0
1002
}
1002
{
1000
REACTOR
1002
}
1001
GENIUS_GENOBJ-N-FIL_13
1002
{
1000
OWNER
1000
GEN
1002
}
  0
LINE
  5
277F3
330
277E2
100
AcDbEntity
  8
Visibile (ISO)
100
AcDbLine
 10
44.00000000021703
 20
-36.73864417919964
 30
0.0
 11
44.0000000001873
 21
36.99999999987108
 31
0.0
  0
ARC
  5
277F4
330
277E2
100
AcDbEntity
  8
Visibile (ISO)
100
AcDbCircle
 10
37.0000000001873
 20
36.99999999986824
 30
0.0
 40
7.0
100
AcDbArc
 50
0.0000000000227982
 51
90.00000000002281
1001
GENIUS_GENOBJ-N-FIL_13
1002
{
1000
OWNER
1000
GEN
1002
}
1001
GENIUS_GENODEF_13
1002
{
1000
HIER
1070
     0
1002
}
1002
{
1000
MANEDIT
1070
     0
1002
}
1002
{
1000
NOSEL
1070
     0
1002
}
1002
{
1000
BEHIND
1070
     0
1002
}
1002
{
1000
OTHER
1070
     0
1002
}
1002
{
1000
REACTOR
1002
}
  0
LINE
  5
277F5
330
277E2
100
AcDbEntity
  8
0
100
AcDbLine
 10
49.50000000022033
 20
-45.00000000011784
 30
0.0
 11
49.50000000021919
 21
-42.00000000011784
 31
0.0
  0
LINE
  5
277F6
330
277E2
100
AcDbEntity
  8
0
100
AcDbLine
 10
47.50000000022033
 20
-45.00000000012761
 30
0.0
 11
47.50000000021907
 21
-42.00000000012761
 31
0.0
  0
LINE
  5
277F7
330
277E2
100
AcDbEntity
  8
0
100
AcDbLine
 10
47.50000000021907
 20
-42.00000000012761
 30
0.0
 11
49.50000000021919
 21
-42.00000000012693
 31
0.0
  0
ENDBLK
  5
277F8
330
277E2
100
AcDbEntity
  8
0
100
AcDbBlockEnd
  0
BLOCK
  5
27809
330
27808
100
AcDbEntity
  8
0
100
AcDbBlockBegin
  2
*U3
 70
     1
 10
0.0
 20
0.0
 30
0.0
  3
*U3
  1

  0
ARC
  5
2780A
330
27808
100
AcDbEntity
  8
Visibile (ISO)
100
AcDbCircle
 10
-55.49999999981947
 20
55.49999999957555
 30
0.0
 40
2.5
100
AcDbArc
 50
38.50251726678473
 51
270.0000000001368
  0
ARC
  5
2780B
330
27808
100
AcDbEntity
  8
Visibile (ISO)
100
AcDbCircle
 10
-55.49999999981947
 20
55.49999999957555
 30
0.0
 40
4.5
100
AcDbArc
 50
44.07920984791053
 51
270.0000000001368
  0
ARC
  5
2780C
330
27808
100
AcDbEntity
  8
0
100
AcDbCircle
 10
-47.23864417889331
 20
63.49999999957862
 30
0.0
 40
7.0
100
AcDbArc
 50
224.0792098479105
 51
270.0000000000196
1001
GENIUS_GENODEF_13
1002
{
1000
HIER
1070
     0
1002
}
1002
{
1000
MANEDIT
1070
     0
1002
}
1002
{
1000
NOSEL
1070
     0
1002
}
1002
{
1000
BEHIND
1070
     0
1002
}
1002
{
1000
OTHER
1070
     0
1002
}
1002
{
1000
REACTOR
1002
}
1001
GENIUS_GENOBJ-N-FIL_13
1002
{
1000
OWNER
1000
GEN
1002
}
  0
ARC
  5
2780D
330
27808
100
AcDbEntity
  8
0
100
AcDbCircle
 10
-47.23864417889331
 20
63.49999999957862
 30
0.0
 40
9.0
100
AcDbArc
 50
224.0792098479105
 51
270.0000000000196
1001
GENIUS_GENODEF_13
1002
{
1000
HIER
1070
     0
1002
}
1002
{
1000
MANEDIT
1070
     0
1002
}
1002
{
1000
NOSEL
1070
     0
1002
}
1002
{
1000
BEHIND
1070
     0
1002
}
1002
{
1000
OTHER
1070
     0
1002
}
1002
{
1000
REACTOR
1002
}
1001
GENIUS_GENOBJ-N-FIL_13
1002
{
1000
OWNER
1000
GEN
1002
}
  0
LINE
  5
2780E
330
27808
100
AcDbEntity
  8
Visibile (ISO)
100
AcDbLine
 10
-47.23864417888967
 20
54.49999999957885
 30
0.0
 11
47.50000000017076
 21
54.49999999961739
 31
0.0
  0
LINE
  5
2780F
330
27808
100
AcDbEntity
  8
Visibile (ISO)
100
AcDbLine
 10
-47.23864417889035
 20
56.49999999957885
 30
0.0
 11
47.50000000016985
 21
56.49999999961739
 31
0.0
  0
ARC
  5
27810
330
27808
100
AcDbEntity
  8
Visibile (ISO)
100
AcDbCircle
 10
47.50000000017349
 20
47.49999999961739
 30
0.0
 40
9.0
100
AcDbArc
 50
0.0000000000227982
 51
90.00000000002606
1001
GENIUS_GENODEF_13
1002
{
1000
HIER
1070
     0
1002
}
1002
{
1000
MANEDIT
1070
     0
1002
}
1002
{
1000
NOSEL
1070
     0
1002
}
1002
{
1000
BEHIND
1070
     0
1002
}
1002
{
1000
OTHER
1070
     0
1002
}
1002
{
1000
REACTOR
1002
}
1001
GENIUS_GENOBJ-N-FIL_13
1002
{
1000
OWNER
1000
GEN
1002
}
  0
LINE
  5
27811
330
27808
100
AcDbEntity
  8
0
100
AcDbLine
 10
-55.49999999980878
 20
50.99999999957555
 30
0.0
 11
-52.49999999980878
 21
50.99999999957669
 31
0.0
  0
LINE
  5
27812
330
27808
100
AcDbEntity
  8
0
100
AcDbLine
 10
-55.49999999981844
 20
52.99999999957555
 30
0.0
 11
-52.49999999981844
 21
52.9999999995768
 31
0.0
  0
LINE
  5
27813
330
27808
100
AcDbEntity
  8
0
100
AcDbLine
 10
-52.49999999981844
 20
52.9999999995768
 30
0.0
 11
-52.49999999981765
 21
50.99999999957669
 31
0.0
  0
ARC
  5
27814
330
27808
100
AcDbEntity
  8
Visibile (ISO)
100
AcDbCircle
 10
55.5000000002151
 20
-55.50000000036965
 30
0.0
 40
2.5
100
AcDbArc
 50
128.5025172667756
 51
0.0000000001367893
  0
ARC
  5
27815
330
27808
100
AcDbEntity
  8
Visibile (ISO)
100
AcDbCircle
 10
55.5000000002151
 20
-55.50000000036965
 30
0.0
 40
4.5
100
AcDbArc
 50
134.0792098479105
 51
0.0000000001367893
  0
ARC
  5
27816
330
27808
100
AcDbEntity
  8
0
100
AcDbCircle
 10
47.50000000021191
 20
-47.2386441794435
 30
0.0
 40
7.0
100
AcDbArc
 50
314.0792098479105
 51
0.0000000000260551
1001
GENIUS_GENODEF_13
1002
{
1000
HIER
1070
     0
1002
}
1002
{
1000
MANEDIT
1070
     0
1002
}
1002
{
1000
NOSEL
1070
     0
1002
}
1002
{
1000
BEHIND
1070
     0
1002
}
1002
{
1000
OTHER
1070
     0
1002
}
1002
{
1000
REACTOR
1002
}
1001
GENIUS_GENOBJ-N-FIL_13
1002
{
1000
OWNER
1000
GEN
1002
}
  0
ARC
  5
27817
330
27808
100
AcDbEntity
  8
0
100
AcDbCircle
 10
47.50000000021191
 20
-47.2386441794435
 30
0.0
 40
9.0
100
AcDbArc
 50
314.0792098479105
 51
0.0000000000260551
1001
GENIUS_GENODEF_13
1002
{
1000
HIER
1070
     0
1002
}
1002
{
1000
MANEDIT
1070
     0
1002
}
1002
{
1000
NOSEL
1070
     0
1002
}
1002
{
1000
BEHIND
1070
     0
1002
}
1002
{
1000
OTHER
1070
     0
1002
}
1002
{
1000
REACTOR
1002
}
1001
GENIUS_GENOBJ-N-FIL_13
1002
{
1000
OWNER
1000
GEN
1002
}
  0
LINE
  5
27818
330
27808
100
AcDbEntity
  8
Visibile (ISO)
100
AcDbLine
 10
56.50000000021191
 20
-47.23864417943986
 30
0.0
 11
56.50000000017349
 21
47.49999999962102
 31
0.0
  0
LINE
  5
27819
330
27808
100
AcDbEntity
  8
Visibile (ISO)
100
AcDbLine
 10
54.50000000021191
 20
-47.23864417944066
 30
0.0
 11
54.50000000017349
 21
47.49999999962023
 31
0.0
  0
ARC
  5
2781A
330
27808
100
AcDbEntity
  8
Visibile (ISO)
100
AcDbCircle
 10
47.50000000017349
 20
47.49999999961739
 30
0.0
 40
7.0
100
AcDbArc
 50
0.0000000000227982
 51
90.00000000002606
1001
GENIUS_GENODEF_13
1002
{
1000
HIER
1070
     0
1002
}
1002
{
1000
MANEDIT
1070
     0
1002
}
1002
{
1000
NOSEL
1070
     0
1002
}
1002
{
1000
BEHIND
1070
     0
1002
}
1002
{
1000
OTHER
1070
     0
1002
}
1002
{
1000
REACTOR
1002
}
1001
GENIUS_GENOBJ-N-FIL_13
1002
{
1000
OWNER
1000
GEN
1002
}
  0
LINE
  5
2781B
330
27808
100
AcDbEntity
  8
0
100
AcDbLine
 10
60.0000000002151
 20
-55.50000000035885
 30
0.0
 11
60.00000000021396
 21
-52.50000000035885
 31
0.0
  0
LINE
  5
2781C
330
27808
100
AcDbEntity
  8
0
100
AcDbLine
 10
58.0000000002151
 20
-55.50000000036863
 30
0.0
 11
58.00000000021373
 21
-52.50000000036863
 31
0.0
  0
LINE
  5
2781D
330
27808
100
AcDbEntity
  8
0
100
AcDbLine
 10
58.00000000021373
 20
-52.50000000036863
 30
0.0
 11
60.00000000021396
 21
-52.50000000036795
 31
0.0
  0
ENDBLK
  5
2781E
330
27808
100
AcDbEntity
  8
0
100
AcDbBlockEnd
  0
BLOCK
  5
2782D
330
2782C
100
AcDbEntity
  8
0
100
AcDbBlockBegin
  2
*D5
 70
     1
 10
0.0
 20
0.0
 30
0.0
  3
*D5
  1

  0
LINE
  5
28BFF
330
2782C
100
AcDbEntity
  8
AM_5
 62
     3
440
 16777216
100
AcDbLine
 10
274.8382519103277
 20
522.9877732651706
 30
0.0
 11
274.8382519103764
 21
402.4199536781034
 31
0.0
  0
LINE
  5
28C00
330
2782C
100
AcDbEntity
  8
AM_5
 62
     3
440
 16777216
100
AcDbLine
 10
405.8382519103279
 20
522.9877732652766
 30
0.0
 11
405.8382519103766
 21
402.4199536781563
 31
0.0
  0
LINE
  5
28C01
330
2782C
100
AcDbEntity
  8
AM_5
 62
     3
440
 16777216
100
AcDbLine
 10
284.8382519103748
 20
406.4199536781074
 30
0.0
 11
395.838251910375
 21
406.4199536781523
 31
0.0
  0
SOLID
  5
28C02
330
2782C
100
AcDbEntity
  8
AM_5
 62
     3
440
 16777216
100
AcDbTrace
 10
284.8382519103741
 20
408.0866203447741
 30
0.0
 11
284.8382519103755
 21
404.7532870114407
 31
0.0
 12
274.8382519103748
 22
406.4199536781034
 32
0.0
 13
274.8382519103748
 23
406.4199536781034
 33
0.0
  0
SOLID
  5
28C03
330
2782C
100
AcDbEntity
  8
AM_5
 62
     3
440
 16777216
100
AcDbTrace
 10
395.8382519103744
 20
408.086620344819
 30
0.0
 11
395.8382519103757
 21
404.7532870114856
 31
0.0
 12
405.838251910375
 22
406.4199536781563
 32
0.0
 13
405.838251910375
 23
406.4199536781563
 33
0.0
  0
MTEXT
  5
28C04
330
2782C
100
AcDbEntity
  8
AM_5
 62
     2
440
 16777216
100
AcDbMText
 10
335.1193546377321
 20
417.4199536781277
 30
0.0
 40
10.0
 41
0.0
 46
0.0
 71
     5
 72
     1
  1
%%c131
  7
ROMANS
 73
     1
 44
1.0
  0
POINT
  5
28C05
330
2782C
100
AcDbEntity
  8
Defpoints
 62
     0
440
 16777216
100
AcDbPoint
 10
274.8382519105392
 20
526.9877732650594
 30
0.0
  0
POINT
  5
28C06
330
2782C
100
AcDbEntity
  8
Defpoints
 62
     0
440
 16777216
100
AcDbPoint
 10
405.8382519105394
 20
526.9877732651124
 30
0.0
  0
POINT
  5
28C07
330
2782C
100
AcDbEntity
  8
Defpoints
 62
     0
440
 16777216
100
AcDbPoint
 10
405.8382519105394
 20
406.4199536779922
 30
0.0
  0
ENDBLK
  5
2782E
330
2782C
100
AcDbEntity
  8
0
100
AcDbBlockEnd
  0
BLOCK
  5
27839
330
27838
100
AcDbEntity
  8
0
100
AcDbBlockBegin
  2
*D6
 70
     1
 10
0.0
 20
0.0
 30
0.0
  3
*D6
  1

  0
LINE
  5
28C08
330
27838
100
AcDbEntity
  8
AM_5
 62
     3
440
 16777216
100
AcDbLine
 10
514.8421175331766
 20
522.9877732653646
 30
0.0
 11
514.8421175332343
 21
380.4877722553883
 31
0.0
  0
LINE
  5
28C09
330
27838
100
AcDbEntity
  8
AM_5
 62
     3
440
 16777216
100
AcDbLine
 10
666.8421175331764
 20
522.9877732654875
 30
0.0
 11
666.842117533234
 21
380.4877722554498
 31
0.0
  0
LINE
  5
28C0A
330
27838
100
AcDbEntity
  8
AM_5
 62
     3
440
 16777216
100
AcDbLine
 10
524.8421175332326
 20
384.4877722553924
 30
0.0
 11
656.8421175332323
 21
384.4877722554458
 31
0.0
  0
SOLID
  5
28C0B
330
27838
100
AcDbEntity
  8
AM_5
 62
     3
440
 16777216
100
AcDbTrace
 10
524.842117533232
 20
386.1544389220591
 30
0.0
 11
524.8421175332332
 21
382.8211055887257
 31
0.0
 12
514.8421175332326
 22
384.4877722553883
 32
0.0
 13
514.8421175332326
 23
384.4877722553883
 33
0.0
  0
SOLID
  5
28C0C
330
27838
100
AcDbEntity
  8
AM_5
 62
     3
440
 16777216
100
AcDbTrace
 10
656.8421175332318
 20
386.1544389221125
 30
0.0
 11
656.842117533233
 21
382.8211055887791
 31
0.0
 12
666.8421175332323
 22
384.4877722554498
 32
0.0
 13
666.8421175332323
 23
384.4877722554498
 33
0.0
  0
MTEXT
  5
28C0D
330
27838
100
AcDbEntity
  8
AM_5
 62
     2
440
 16777216
100
AcDbMText
 10
590.842117533228
 20
395.4877722554191
 30
0.0
 40
10.0
 41
0.0
 46
0.0
 71
     5
 72
     1
  1
%%c152
  7
ROMANS
 73
     1
 44
1.0
  0
POINT
  5
28C0E
330
27838
100
AcDbEntity
  8
Defpoints
 62
     0
440
 16777216
100
AcDbPoint
 10
514.8421175333881
 20
526.9877732651564
 30
0.0
  0
POINT
  5
28C0F
330
27838
100
AcDbEntity
  8
Defpoints
 62
     0
440
 16777216
100
AcDbPoint
 10
666.8421175333879
 20
526.9877732652178
 30
0.0
  0
POINT
  5
28C10
330
27838
100
AcDbEntity
  8
Defpoints
 62
     0
440
 16777216
100
AcDbPoint
 10
666.8421175333879
 20
384.4877722551802
 30
0.0
  0
ENDBLK
  5
2783A
330
27838
100
AcDbEntity
  8
0
100
AcDbBlockEnd
  0
BLOCK
  5
27845
330
27844
100
AcDbEntity
  8
0
100
AcDbBlockBegin
  2
*D7
 70
     1
 10
0.0
 20
0.0
 30
0.0
  3
*D7
  1

  0
LINE
  5
28C11
330
27844
100
AcDbEntity
  8
AM_5
 62
     3
440
 16777216
100
AcDbLine
 10
974.4604722877193
 20
522.9877732657361
 30
0.0
 11
974.4604722877847
 21
361.2683122840292
 31
0.0
  0
LINE
  5
28C12
330
27844
100
AcDbEntity
  8
AM_5
 62
     3
440
 16777216
100
AcDbLine
 10
780.4604722877191
 20
522.9877732655791
 30
0.0
 11
780.4604722877845
 21
361.2683122839508
 31
0.0
  0
LINE
  5
28C13
330
27844
100
AcDbEntity
  8
AM_5
 62
     3
440
 16777216
100
AcDbLine
 10
964.4604722877831
 20
365.2683122840252
 30
0.0
 11
790.4604722877829
 21
365.2683122839548
 31
0.0
  0
SOLID
  5
28C14
330
27844
100
AcDbEntity
  8
AM_5
 62
     3
440
 16777216
100
AcDbTrace
 10
964.4604722877824
 20
366.9349789506919
 30
0.0
 11
964.4604722877838
 21
363.6016456173585
 31
0.0
 12
974.4604722877831
 22
365.2683122840292
 32
0.0
 13
974.4604722877831
 23
365.2683122840292
 33
0.0
  0
SOLID
  5
28C15
330
27844
100
AcDbEntity
  8
AM_5
 62
     3
440
 16777216
100
AcDbTrace
 10
790.4604722877822
 20
366.9349789506215
 30
0.0
 11
790.4604722877835
 21
363.6016456172881
 31
0.0
 12
780.4604722877829
 22
365.2683122839508
 32
0.0
 13
780.4604722877829
 23
365.2683122839508
 33
0.0
  0
MTEXT
  5
28C16
330
27844
100
AcDbEntity
  8
AM_5
 62
     2
440
 16777216
100
AcDbMText
 10
877.4604722877873
 20
376.26831228399
 30
0.0
 40
10.0
 41
0.0
 46
0.0
 71
     5
 72
     1
  1
%%c194
  7
ROMANS
 73
     1
 44
1.0
  0
POINT
  5
28C17
330
27844
100
AcDbEntity
  8
Defpoints
 62
     0
440
 16777216
100
AcDbPoint
 10
974.4604722879308
 20
526.9877732653421
 30
0.0
  0
POINT
  5
28C18
330
27844
100
AcDbEntity
  8
Defpoints
 62
     0
440
 16777216
100
AcDbPoint
 10
780.4604722879305
 20
526.9877732652635
 30
0.0
  0
POINT
  5
28C19
330
27844
100
AcDbEntity
  8
Defpoints
 62
     0
440
 16777216
100
AcDbPoint
 10
780.4604722879305
 20
365.2683122836352
 30
0.0
  0
ENDBLK
  5
27846
330
27844
100
AcDbEntity
  8
0
100
AcDbBlockEnd
  0
BLOCK
  5
27851
330
27850
100
AcDbEntity
  8
0
100
AcDbBlockBegin
  2
*D8
 70
     1
 10
0.0
 20
0.0
 30
0.0
  3
*D8
  1

  0
LINE
  5
28BDE
330
27850
100
AcDbEntity
  8
AM_5
 62
     3
440
 16777216
100
AcDbLine
 10
175.6899591704346
 20
564.5406928293999
 30
0.0
 11
186.2693367478574
 21
570.6602001713782
 31
0.0
  0
LINE
  5
28BDF
330
27850
100
AcDbEntity
  8
AM_5
 62
     3
440
 16777216
100
AcDbLine
 10
186.2693367478574
 20
570.6602001713782
 30
0.0
 11
223.5550510335716
 21
570.6602001713934
 31
0.0
  0
SOLID
  5
28BE0
330
27850
100
AcDbEntity
  8
AM_5
 62
     3
440
 16777216
100
AcDbTrace
 10
174.8554498467821
 20
565.9833889049871
 30
0.0
 11
176.5244684940871
 21
563.0979967538126
 31
0.0
 12
167.0337827169112
 22
559.5336368874849
 32
0.0
 13
167.0337827169112
 23
559.5336368874849
 33
0.0
  0
MTEXT
  5
28BE1
330
27850
100
AcDbEntity
  8
AM_5
 62
     2
440
 16777216
100
AcDbMText
 10
207.91219389071
 20
581.660200171387
 30
0.0
 40
10.0
 41
0.0
 46
0.0
 71
     5
 72
     1
  1
∅130
  7
ROMANS
 73
     1
 44
1.0
  0
POINT
  5
28BE2
330
27850
100
AcDbEntity
  8
Defpoints
 62
     0
440
 16777216
100
AcDbPoint
 10
167.0337827171374
 20
559.5336368874174
 30
0.0
  0
POINT
  5
28BE3
330
27850
100
AcDbEntity
  8
Defpoints
 62
     0
440
 16777216
100
AcDbPoint
 10
54.50348882130638
 20
494.4419096425675
 30
0.0
  0
ENDBLK
  5
27852
330
27850
100
AcDbEntity
  8
0
100
AcDbBlockEnd
  0
BLOCK
  5
2785A
330
27859
100
AcDbEntity
  8
0
100
AcDbBlockBegin
  2
*D9
 70
     1
 10
0.0
 20
0.0
 30
0.0
  3
*D9
  1

  0
LINE
  5
28BE4
330
27859
100
AcDbEntity
  8
AM_5
 62
     3
440
 16777216
100
AcDbLine
 10
417.419144137412
 20
573.447821193281
 30
0.0
 11
425.9836877181991
 21
578.6100487408424
 31
0.0
  0
LINE
  5
28BE5
330
27859
100
AcDbEntity
  8
AM_5
 62
     3
440
 16777216
100
AcDbLine
 10
425.9836877181991
 20
578.6100487408424
 30
0.0
 11
463.2694020039133
 21
578.6100487408576
 31
0.0
  0
SOLID
  5
28BE6
330
27859
100
AcDbEntity
  8
AM_5
 62
     3
440
 16777216
100
AcDbTrace
 10
416.5587728794851
 20
574.8752451234121
 30
0.0
 11
418.279515395339
 21
572.0203972631498
 31
0.0
 12
408.8546005566251
 22
568.2855936457196
 32
0.0
 13
408.8546005566251
 23
568.2855936457196
 33
0.0
  0
MTEXT
  5
28BE7
330
27859
100
AcDbEntity
  8
AM_5
 62
     2
440
 16777216
100
AcDbMText
 10
447.6265448610517
 20
589.6100487408512
 30
0.0
 40
10.0
 41
0.0
 46
0.0
 71
     5
 72
     1
  1
∅160
  7
ROMANS
 73
     1
 44
1.0
  0
POINT
  5
28BE8
330
27859
100
AcDbEntity
  8
Defpoints
 62
     0
440
 16777216
100
AcDbPoint
 10
408.8546005568548
 20
568.2855936455543
 30
0.0
  0
POINT
  5
28BE9
330
27859
100
AcDbEntity
  8
Defpoints
 62
     0
440
 16777216
100
AcDbPoint
 10
271.821903264222
 20
485.6899528846213
 30
0.0
  0
ENDBLK
  5
2785B
330
27859
100
AcDbEntity
  8
0
100
AcDbBlockEnd
  0
BLOCK
  5
27863
330
27862
100
AcDbEntity
  8
0
100
AcDbBlockBegin
  2
*D10
 70
     1
 10
0.0
 20
0.0
 30
0.0
  3
*D10
  1

  0
LINE
  5
28BEA
330
27862
100
AcDbEntity
  8
AM_5
 62
     3
440
 16777216
100
AcDbLine
 10
675.6755059287657
 20
579.9339366138918
 30
0.0
 11
684.1588447683257
 21
585.2285529487394
 31
0.0
  0
LINE
  5
28BEB
330
27862
100
AcDbEntity
  8
AM_5
 62
     3
440
 16777216
100
AcDbLine
 10
684.1588447683257
 20
585.2285529487394
 30
0.0
 11
721.44455905404
 21
585.2285529487544
 31
0.0
  0
SOLID
  5
28BEC
330
27862
100
AcDbEntity
  8
AM_5
 62
     3
440
 16777216
100
AcDbTrace
 10
674.7930698729579
 20
581.3478264204849
 30
0.0
 11
676.5579419845735
 21
578.5200468072985
 31
0.0
 12
667.1921670892067
 22
574.6393202790446
 32
0.0
 13
667.1921670892067
 23
574.6393202790446
 33
0.0
  0
MTEXT
  5
28BED
330
27862
100
AcDbEntity
  8
AM_5
 62
     2
440
 16777216
100
AcDbMText
 10
705.8017019111785
 20
596.2285529487481
 30
0.0
 40
10.0
 41
0.0
 46
0.0
 71
     5
 72
     1
  1
∅180
  7
ROMANS
 73
     1
 44
1.0
  0
POINT
  5
28BEE
330
27862
100
AcDbEntity
  8
Defpoints
 62
     0
440
 16777216
100
AcDbPoint
 10
667.1921670894392
 20
574.6393202787747
 30
0.0
  0
POINT
  5
28BEF
330
27862
100
AcDbEntity
  8
Defpoints
 62
     0
440
 16777216
100
AcDbPoint
 10
514.4920679773493
 20
479.3362262515958
 30
0.0
  0
ENDBLK
  5
27864
330
27862
100
AcDbEntity
  8
0
100
AcDbBlockEnd
  0
BLOCK
  5
2786C
330
2786B
100
AcDbEntity
  8
0
100
AcDbBlockBegin
  2
*D11
 70
     1
 10
0.0
 20
0.0
 30
0.0
  3
*D11
  1

  0
LINE
  5
28BF0
330
2786B
100
AcDbEntity
  8
AM_5
 62
     3
440
 16777216
100
AcDbLine
 10
982.6998832915917
 20
586.7009742479797
 30
0.0
 11
991.3973552753846
 21
591.6359495357758
 31
0.0
  0
LINE
  5
28BF1
330
2786B
100
AcDbEntity
  8
AM_5
 62
     3
440
 16777216
100
AcDbLine
 10
991.3973552753846
 20
591.6359495357758
 30
0.0
 11
1028.683069561099
 21
591.6359495357909
 31
0.0
  0
SOLID
  5
28BF2
330
2786B
100
AcDbEntity
  8
AM_5
 62
     3
440
 16777216
100
AcDbTrace
 10
981.8773874102925
 20
588.1505529119452
 30
0.0
 11
983.5223791728911
 21
585.2513955840145
 31
0.0
 12
974.0024113077998
 22
581.7659989601842
 32
0.0
 13
974.0024113077998
 23
581.7659989601842
 33
0.0
  0
MTEXT
  5
28BF3
330
2786B
100
AcDbEntity
  8
AM_5
 62
     2
440
 16777216
100
AcDbMText
 10
1013.040212418237
 20
602.6359495357846
 30
0.0
 40
10.0
 41
0.0
 46
0.0
 71
     5
 72
     1
  1
∅222
  7
ROMANS
 73
     1
 44
1.0
  0
POINT
  5
28BF4
330
2786B
100
AcDbEntity
  8
Defpoints
 62
     0
440
 16777216
100
AcDbPoint
 10
974.0024113080351
 20
581.7659989597903
 30
0.0
  0
POINT
  5
28BF5
330
2786B
100
AcDbEntity
  8
Defpoints
 62
     0
440
 16777216
100
AcDbPoint
 10
780.9185332678264
 20
472.2095475708161
 30
0.0
  0
ENDBLK
  5
2786D
330
2786B
100
AcDbEntity
  8
0
100
AcDbBlockEnd
  0
BLOCK
  5
27875
330
27874
100
AcDbEntity
  8
0
100
AcDbBlockBegin
  2
*D12
 70
     1
 10
0.0
 20
0.0
 30
0.0
  3
*D12
  1

  0
LINE
  5
28BF6
330
27874
100
AcDbEntity
  8
AM_5
 62
     3
440
 16777216
100
AcDbLine
 10
55.76863576900926
 20
522.9877732649932
 30
0.0
 11
55.76863576905303
 21
414.7341045018564
 31
0.0
  0
LINE
  5
28BF7
330
27874
100
AcDbEntity
  8
AM_5
 62
     3
440
 16777216
100
AcDbLine
 10
165.7686357690093
 20
522.9877732650823
 30
0.0
 11
165.768635769053
 21
414.7341045019008
 31
0.0
  0
LINE
  5
28BF8
330
27874
100
AcDbEntity
  8
AM_5
 62
     3
440
 16777216
100
AcDbLine
 10
65.76863576905141
 20
418.7341045018604
 30
0.0
 11
155.7686357690514
 21
418.7341045018968
 31
0.0
  0
SOLID
  5
28BF9
330
27874
100
AcDbEntity
  8
AM_5
 62
     3
440
 16777216
100
AcDbTrace
 10
65.76863576905075
 20
420.4007711685271
 30
0.0
 11
65.76863576905208
 21
417.0674378351937
 31
0.0
 12
55.76863576905141
 22
418.7341045018564
 32
0.0
 13
55.76863576905141
 23
418.7341045018564
 33
0.0
  0
SOLID
  5
28BFA
330
27874
100
AcDbEntity
  8
AM_5
 62
     3
440
 16777216
100
AcDbTrace
 10
155.7686357690507
 20
420.4007711685635
 30
0.0
 11
155.7686357690521
 21
417.0674378352301
 31
0.0
 12
165.7686357690514
 22
418.7341045019008
 32
0.0
 13
165.7686357690514
 23
418.7341045019008
 33
0.0
  0
MTEXT
  5
28BFB
330
27874
100
AcDbEntity
  8
AM_5
 62
     2
440
 16777216
100
AcDbMText
 10
110.8881276618342
 20
429.7341045018787
 30
0.0
 40
10.0
 41
0.0
 46
0.0
 71
     5
 72
     1
  1
%%c110
  7
ROMANS
 73
     1
 44
1.0
  0
POINT
  5
28BFC
330
27874
100
AcDbEntity
  8
Defpoints
 62
     0
440
 16777216
100
AcDbPoint
 10
55.76863576922074
 20
526.9877732649707
 30
0.0
  0
POINT
  5
28BFD
330
27874
100
AcDbEntity
  8
Defpoints
 62
     0
440
 16777216
100
AcDbPoint
 10
165.7686357692207
 20
526.9877732650152
 30
0.0
  0
POINT
  5
28BFE
330
27874
100
AcDbEntity
  8
Defpoints
 62
     0
440
 16777216
100
AcDbPoint
 10
165.7686357692207
 20
418.7341045018338
 30
0.0
  0
ENDBLK
  5
27876
330
27874
100
AcDbEntity
  8
0
100
AcDbBlockEnd
  0
BLOCK
  5
27DEE
330
27DED
100
AcDbEntity
  8
0
100
AcDbBlockBegin
  2
*D22
 70
     1
 10
0.0
 20
0.0
 30
0.0
  3
*D22
  1

  0
LINE
  5
28C73
330
27DED
100
AcDbEntity
  8
AM_5
 62
     3
440
 16777216
100
AcDbLine
 10
155.268635769006
 20
530.9877732650738
 30
0.0
 11
155.2686357689671
 21
627.3297367301363
 31
0.0
  0
LINE
  5
28C74
330
27DED
100
AcDbEntity
  8
AM_5
 62
     3
440
 16777216
100
AcDbLine
 10
165.768635769006
 20
530.9877732650821
 30
0.0
 11
165.7686357689671
 21
627.3297367301407
 31
0.0
  0
LINE
  5
28C75
330
27DED
100
AcDbEntity
  8
AM_5
 62
     3
440
 16777216
100
AcDbLine
 10
145.2686357689687
 20
623.3297367301324
 30
0.0
 11
135.2686357689687
 21
623.3297367301283
 31
0.0
  0
LINE
  5
28C76
330
27DED
100
AcDbEntity
  8
AM_5
 62
     3
440
 16777216
100
AcDbLine
 10
175.7686357689687
 20
623.3297367301446
 30
0.0
 11
185.7686357689687
 21
623.3297367301487
 31
0.0
  0
LINE
  5
28C77
330
27DED
100
AcDbEntity
  8
AM_5
 62
     3
440
 16777216
100
AcDbLine
 10
155.2686357689687
 20
623.3297367301363
 30
0.0
 11
165.7686357689687
 21
623.3297367301407
 31
0.0
  0
SOLID
  5
28C78
330
27DED
100
AcDbEntity
  8
AM_5
 62
     3
440
 16777216
100
AcDbTrace
 10
145.268635768968
 20
624.996403396799
 30
0.0
 11
145.2686357689693
 21
621.6630700634657
 31
0.0
 12
155.2686357689687
 22
623.3297367301363
 32
0.0
 13
155.2686357689687
 23
623.3297367301363
 33
0.0
  0
SOLID
  5
28C79
330
27DED
100
AcDbEntity
  8
AM_5
 62
     3
440
 16777216
100
AcDbTrace
 10
175.768635768968
 20
624.9964033968113
 30
0.0
 11
175.7686357689693
 21
621.663070063478
 31
0.0
 12
165.7686357689687
 22
623.3297367301407
 32
0.0
 13
165.7686357689687
 23
623.3297367301407
 33
0.0
  0
MTEXT
  5
28C7A
330
27DED
100
AcDbEntity
  8
AM_5
 62
     2
440
 16777216
100
AcDbMText
 10
160.5186357689642
 20
634.3297367301385
 30
0.0
 40
10.0
 41
0.0
 46
0.0
 71
     5
 72
     1
  1
Passo 10.5
  7
ROMANS
 73
     1
 44
1.0
  0
POINT
  5
28C7B
330
27DED
100
AcDbEntity
  8
Defpoints
 62
     0
440
 16777216
100
AcDbPoint
 10
155.2686357692207
 20
526.987773265011
 30
0.0
  0
POINT
  5
28C7C
330
27DED
100
AcDbEntity
  8
Defpoints
 62
     0
440
 16777216
100
AcDbPoint
 10
165.7686357692207
 20
526.987773265015
 30
0.0
  0
POINT
  5
28C7D
330
27DED
100
AcDbEntity
  8
Defpoints
 62
     0
440
 16777216
100
AcDbPoint
 10
165.7686357692207
 20
623.3297367300736
 30
0.0
  0
ENDBLK
  5
27DEF
330
27DED
100
AcDbEntity
  8
0
100
AcDbBlockEnd
  0
BLOCK
  5
27E4B
330
27E4A
100
AcDbEntity
  8
0
100
AcDbBlockBegin
  2
*D23
 70
     1
 10
0.0
 20
0.0
 30
0.0
  3
*D23
  1

  0
LINE
  5
28C7E
330
27E4A
100
AcDbEntity
  8
AM_5
 62
     3
440
 16777216
100
AcDbLine
 10
405.8382519103245
 20
530.9877732652766
 30
0.0
 11
405.8382519102801
 21
640.5796626322377
 31
0.0
  0
LINE
  5
28C7F
330
27E4A
100
AcDbEntity
  8
AM_5
 62
     3
440
 16777216
100
AcDbLine
 10
395.3382519103245
 20
530.9877732652681
 30
0.0
 11
395.3382519102801
 21
640.5796626322334
 31
0.0
  0
LINE
  5
28C80
330
27E4A
100
AcDbEntity
  8
AM_5
 62
     3
440
 16777216
100
AcDbLine
 10
415.8382519102818
 20
636.5796626322417
 30
0.0
 11
425.8382519102818
 21
636.5796626322458
 31
0.0
  0
LINE
  5
28C81
330
27E4A
100
AcDbEntity
  8
AM_5
 62
     3
440
 16777216
100
AcDbLine
 10
385.3382519102818
 20
636.5796626322294
 30
0.0
 11
375.3382519102818
 21
636.5796626322253
 31
0.0
  0
LINE
  5
28C82
330
27E4A
100
AcDbEntity
  8
AM_5
 62
     3
440
 16777216
100
AcDbLine
 10
405.8382519102818
 20
636.5796626322377
 30
0.0
 11
395.3382519102818
 21
636.5796626322334
 31
0.0
  0
SOLID
  5
28C83
330
27E4A
100
AcDbEntity
  8
AM_5
 62
     3
440
 16777216
100
AcDbTrace
 10
415.8382519102811
 20
638.2463292989083
 30
0.0
 11
415.8382519102824
 21
634.9129959655751
 31
0.0
 12
405.8382519102818
 22
636.5796626322377
 32
0.0
 13
405.8382519102818
 23
636.5796626322377
 33
0.0
  0
SOLID
  5
28C84
330
27E4A
100
AcDbEntity
  8
AM_5
 62
     3
440
 16777216
100
AcDbTrace
 10
385.3382519102811
 20
638.2463292988961
 30
0.0
 11
385.3382519102824
 21
634.9129959655628
 31
0.0
 12
395.3382519102818
 22
636.5796626322334
 32
0.0
 13
395.3382519102818
 23
636.5796626322334
 33
0.0
  0
MTEXT
  5
28C85
330
27E4A
100
AcDbEntity
  8
AM_5
 62
     2
440
 16777216
100
AcDbMText
 10
400.5882519102773
 20
647.5796626322356
 30
0.0
 40
10.0
 41
0.0
 46
0.0
 71
     5
 72
     1
  1
Passo 10.5
  7
ROMANS
 73
     1
 44
1.0
  0
POINT
  5
28C86
330
27E4A
100
AcDbEntity
  8
Defpoints
 62
     0
440
 16777216
100
AcDbPoint
 10
405.8382519105392
 20
526.9877732651124
 30
0.0
  0
POINT
  5
28C87
330
27E4A
100
AcDbEntity
  8
Defpoints
 62
     0
440
 16777216
100
AcDbPoint
 10
395.3382519105392
 20
526.9877732651082
 30
0.0
  0
POINT
  5
28C88
330
27E4A
100
AcDbEntity
  8
Defpoints
 62
     0
440
 16777216
100
AcDbPoint
 10
395.3382519105392
 20
636.5796626320736
 30
0.0
  0
ENDBLK
  5
27E4C
330
27E4A
100
AcDbEntity
  8
0
100
AcDbBlockEnd
  0
BLOCK
  5
27EB8
330
27EB7
100
AcDbEntity
  8
0
100
AcDbBlockBegin
  2
*D24
 70
     1
 10
0.0
 20
0.0
 30
0.0
  3
*D24
  1

  0
LINE
  5
28C89
330
27EB7
100
AcDbEntity
  8
AM_5
 62
     3
440
 16777216
100
AcDbLine
 10
666.8421175331731
 20
530.9877732654875
 30
0.0
 11
666.8421175331248
 21
650.672284133406
 31
0.0
  0
LINE
  5
28C8A
330
27EB7
100
AcDbEntity
  8
AM_5
 62
     3
440
 16777216
100
AcDbLine
 10
656.3421175331733
 20
530.9877732654791
 30
0.0
 11
656.342117533125
 21
650.6722841334018
 31
0.0
  0
LINE
  5
28C8B
330
27EB7
100
AcDbEntity
  8
AM_5
 62
     3
440
 16777216
100
AcDbLine
 10
676.8421175331264
 20
646.67228413341
 30
0.0
 11
686.8421175331264
 21
646.6722841334141
 31
0.0
  0
LINE
  5
28C8C
330
27EB7
100
AcDbEntity
  8
AM_5
 62
     3
440
 16777216
100
AcDbLine
 10
646.3421175331266
 20
646.6722841333977
 30
0.0
 11
636.3421175331266
 21
646.6722841333936
 31
0.0
  0
LINE
  5
28C8D
330
27EB7
100
AcDbEntity
  8
AM_5
 62
     3
440
 16777216
100
AcDbLine
 10
666.8421175331264
 20
646.672284133406
 30
0.0
 11
656.3421175331266
 21
646.6722841334018
 31
0.0
  0
SOLID
  5
28C8E
330
27EB7
100
AcDbEntity
  8
AM_5
 62
     3
440
 16777216
100
AcDbTrace
 10
676.8421175331257
 20
648.3389508000766
 30
0.0
 11
676.8421175331271
 21
645.0056174667434
 31
0.0
 12
666.8421175331264
 22
646.672284133406
 32
0.0
 13
666.8421175331264
 23
646.672284133406
 33
0.0
  0
SOLID
  5
28C8F
330
27EB7
100
AcDbEntity
  8
AM_5
 62
     3
440
 16777216
100
AcDbTrace
 10
646.3421175331259
 20
648.3389508000644
 30
0.0
 11
646.3421175331273
 21
645.0056174667311
 31
0.0
 12
656.3421175331266
 22
646.6722841334018
 32
0.0
 13
656.3421175331266
 23
646.6722841334018
 33
0.0
  0
MTEXT
  5
28C90
330
27EB7
100
AcDbEntity
  8
AM_5
 62
     2
440
 16777216
100
AcDbMText
 10
661.5921175331221
 20
657.6722841334039
 30
0.0
 40
10.0
 41
0.0
 46
0.0
 71
     5
 72
     1
  1
Passo 10.5
  7
ROMANS
 73
     1
 44
1.0
  0
POINT
  5
28C91
330
27EB7
100
AcDbEntity
  8
Defpoints
 62
     0
440
 16777216
100
AcDbPoint
 10
666.8421175333879
 20
526.9877732652178
 30
0.0
  0
POINT
  5
28C92
330
27EB7
100
AcDbEntity
  8
Defpoints
 62
     0
440
 16777216
100
AcDbPoint
 10
656.3421175333881
 20
526.9877732652136
 30
0.0
  0
POINT
  5
28C93
330
27EB7
100
AcDbEntity
  8
Defpoints
 62
     0
440
 16777216
100
AcDbPoint
 10
656.3421175333881
 20
646.6722841331364
 30
0.0
  0
ENDBLK
  5
27EB9
330
27EB7
100
AcDbEntity
  8
0
100
AcDbBlockEnd
  0
BLOCK
  5
27F26
330
27F25
100
AcDbEntity
  8
0
100
AcDbBlockBegin
  2
*D25
 70
     1
 10
0.0
 20
0.0
 30
0.0
  3
*D25
  1

  0
LINE
  5
28C94
330
27F25
100
AcDbEntity
  8
AM_5
 62
     3
440
 16777216
100
AcDbLine
 10
974.460472287716
 20
530.9877732657361
 30
0.0
 11
974.4604722876597
 21
670.2736552538821
 31
0.0
  0
LINE
  5
28C95
330
27F25
100
AcDbEntity
  8
AM_5
 62
     3
440
 16777216
100
AcDbLine
 10
963.960472287716
 20
530.9877732657277
 30
0.0
 11
963.9604722876597
 21
670.2736552538779
 31
0.0
  0
LINE
  5
28C96
330
27F25
100
AcDbEntity
  8
AM_5
 62
     3
440
 16777216
100
AcDbLine
 10
984.4604722876613
 20
666.2736552538862
 30
0.0
 11
994.4604722876613
 21
666.2736552538902
 31
0.0
  0
LINE
  5
28C97
330
27F25
100
AcDbEntity
  8
AM_5
 62
     3
440
 16777216
100
AcDbLine
 10
953.9604722876613
 20
666.2736552538738
 30
0.0
 11
943.9604722876613
 21
666.2736552538698
 31
0.0
  0
LINE
  5
28C98
330
27F25
100
AcDbEntity
  8
AM_5
 62
     3
440
 16777216
100
AcDbLine
 10
974.4604722876613
 20
666.2736552538821
 30
0.0
 11
963.9604722876613
 21
666.2736552538779
 31
0.0
  0
SOLID
  5
28C99
330
27F25
100
AcDbEntity
  8
AM_5
 62
     3
440
 16777216
100
AcDbTrace
 10
984.4604722876607
 20
667.9403219205528
 30
0.0
 11
984.460472287662
 21
664.6069885872196
 31
0.0
 12
974.4604722876613
 22
666.2736552538821
 32
0.0
 13
974.4604722876613
 23
666.2736552538821
 33
0.0
  0
SOLID
  5
28C9A
330
27F25
100
AcDbEntity
  8
AM_5
 62
     3
440
 16777216
100
AcDbTrace
 10
953.9604722876607
 20
667.9403219205404
 30
0.0
 11
953.960472287662
 21
664.6069885872072
 31
0.0
 12
963.9604722876613
 22
666.2736552538779
 32
0.0
 13
963.9604722876613
 23
666.2736552538779
 33
0.0
  0
MTEXT
  5
28C9B
330
27F25
100
AcDbEntity
  8
AM_5
 62
     2
440
 16777216
100
AcDbMText
 10
969.2104722876569
 20
677.27365525388
 30
0.0
 40
10.0
 41
0.0
 46
0.0
 71
     5
 72
     1
  1
Passo 10.5
  7
ROMANS
 73
     1
 44
1.0
  0
POINT
  5
28C9C
330
27F25
100
AcDbEntity
  8
Defpoints
 62
     0
440
 16777216
100
AcDbPoint
 10
974.4604722879308
 20
526.9877732653421
 30
0.0
  0
POINT
  5
28C9D
330
27F25
100
AcDbEntity
  8
Defpoints
 62
     0
440
 16777216
100
AcDbPoint
 10
963.9604722879308
 20
526.9877732653379
 30
0.0
  0
POINT
  5
28C9E
330
27F25
100
AcDbEntity
  8
Defpoints
 62
     0
440
 16777216
100
AcDbPoint
 10
963.9604722879308
 20
666.2736552534881
 30
0.0
  0
ENDBLK
  5
27F27
330
27F25
100
AcDbEntity
  8
0
100
AcDbBlockEnd
  0
BLOCK
  5
28038
330
28037
100
AcDbEntity
  8
0
100
AcDbBlockBegin
  2
*D26
 70
     1
 10
0.0
 20
0.0
 30
0.0
  3
*D26
  1

  0
LINE
  5
28C9F
330
28037
100
AcDbEntity
  8
AM_5
 62
     3
440
 16777216
100
AcDbLine
 10
963.9604722877193
 20
522.9877732657277
 30
0.0
 11
963.9604722877667
 21
405.8315098380571
 31
0.0
  0
LINE
  5
28CA0
330
28037
100
AcDbEntity
  8
AM_5
 62
     3
440
 16777216
100
AcDbLine
 10
972.4604722877193
 20
522.9877732657345
 30
0.0
 11
972.4604722877667
 21
405.8315098380606
 31
0.0
  0
LINE
  5
28CA1
330
28037
100
AcDbEntity
  8
AM_5
 62
     3
440
 16777216
100
AcDbLine
 10
953.960472287765
 20
409.8315098380531
 30
0.0
 11
943.960472287765
 21
409.831509838049
 31
0.0
  0
LINE
  5
28CA2
330
28037
100
AcDbEntity
  8
AM_5
 62
     3
440
 16777216
100
AcDbLine
 10
982.460472287765
 20
409.8315098380646
 30
0.0
 11
1023.317615144908
 21
409.8315098380812
 31
0.0
  0
LINE
  5
28CA3
330
28037
100
AcDbEntity
  8
AM_5
 62
     3
440
 16777216
100
AcDbLine
 10
963.960472287765
 20
409.8315098380571
 30
0.0
 11
972.460472287765
 21
409.8315098380606
 31
0.0
  0
SOLID
  5
28CA4
330
28037
100
AcDbEntity
  8
AM_5
 62
     3
440
 16777216
100
AcDbTrace
 10
953.9604722877643
 20
411.4981765047198
 30
0.0
 11
953.9604722877657
 21
408.1648431713864
 31
0.0
 12
963.960472287765
 22
409.8315098380571
 32
0.0
 13
963.960472287765
 23
409.8315098380571
 33
0.0
  0
SOLID
  5
28CA5
330
28037
100
AcDbEntity
  8
AM_5
 62
     3
440
 16777216
100
AcDbTrace
 10
982.4604722877643
 20
411.4981765047313
 30
0.0
 11
982.4604722877657
 21
408.1648431713979
 31
0.0
 12
972.460472287765
 22
409.8315098380606
 32
0.0
 13
972.460472287765
 23
409.8315098380606
 33
0.0
  0
MTEXT
  5
28CA6
330
28037
100
AcDbEntity
  8
AM_5
 62
     2
440
 16777216
100
AcDbMText
 10
1007.889043716332
 20
420.8315098380749
 30
0.0
 40
10.0
 41
0.0
 46
0.0
 71
     5
 72
     1
  1
8.5
  7
ROMANS
 73
     1
 44
1.0
  0
POINT
  5
28CA7
330
28037
100
AcDbEntity
  8
Defpoints
 62
     0
440
 16777216
100
AcDbPoint
 10
963.9604722879308
 20
526.9877732653379
 30
0.0
  0
POINT
  5
28CA8
330
28037
100
AcDbEntity
  8
Defpoints
 62
     0
440
 16777216
100
AcDbPoint
 10
972.4604722879308
 20
526.9877732653413
 30
0.0
  0
POINT
  5
28CA9
330
28037
100
AcDbEntity
  8
Defpoints
 62
     0
440
 16777216
100
AcDbPoint
 10
972.4604722879308
 20
409.8315098376673
 30
0.0
  0
ENDBLK
  5
28039
330
28037
100
AcDbEntity
  8
0
100
AcDbBlockEnd
  0
BLOCK
  5
28068
330
28067
100
AcDbEntity
  8
0
100
AcDbBlockBegin
  2
*D27
 70
     1
 10
0.0
 20
0.0
 30
0.0
  3
*D27
  1

  0
LINE
  5
28CAA
330
28067
100
AcDbEntity
  8
AM_5
 62
     3
440
 16777216
100
AcDbLine
 10
656.3421175331766
 20
522.9877732654791
 30
0.0
 11
656.342117533218
 21
420.4877722554385
 31
0.0
  0
LINE
  5
28CAB
330
28067
100
AcDbEntity
  8
AM_5
 62
     3
440
 16777216
100
AcDbLine
 10
664.8421175331766
 20
522.9877732654859
 30
0.0
 11
664.842117533218
 21
420.4877722554419
 31
0.0
  0
LINE
  5
28CAC
330
28067
100
AcDbEntity
  8
AM_5
 62
     3
440
 16777216
100
AcDbLine
 10
646.3421175332164
 20
424.4877722554345
 30
0.0
 11
636.3421175332164
 21
424.4877722554305
 31
0.0
  0
LINE
  5
28CAD
330
28067
100
AcDbEntity
  8
AM_5
 62
     3
440
 16777216
100
AcDbLine
 10
674.8421175332164
 20
424.487772255446
 30
0.0
 11
715.6992603903593
 21
424.4877722554625
 31
0.0
  0
LINE
  5
28CAE
330
28067
100
AcDbEntity
  8
AM_5
 62
     3
440
 16777216
100
AcDbLine
 10
656.3421175332164
 20
424.4877722554385
 30
0.0
 11
664.8421175332164
 21
424.4877722554419
 31
0.0
  0
SOLID
  5
28CAF
330
28067
100
AcDbEntity
  8
AM_5
 62
     3
440
 16777216
100
AcDbTrace
 10
646.3421175332157
 20
426.1544389221012
 30
0.0
 11
646.3421175332171
 21
422.8211055887678
 31
0.0
 12
656.3421175332164
 22
424.4877722554385
 32
0.0
 13
656.3421175332164
 23
424.4877722554385
 33
0.0
  0
SOLID
  5
28CB0
330
28067
100
AcDbEntity
  8
AM_5
 62
     3
440
 16777216
100
AcDbTrace
 10
674.8421175332157
 20
426.1544389221127
 30
0.0
 11
674.8421175332171
 21
422.8211055887793
 31
0.0
 12
664.8421175332164
 22
424.4877722554419
 32
0.0
 13
664.8421175332164
 23
424.4877722554419
 33
0.0
  0
MTEXT
  5
28CB1
330
28067
100
AcDbEntity
  8
AM_5
 62
     2
440
 16777216
100
AcDbMText
 10
700.2706889617834
 20
435.4877722554563
 30
0.0
 40
10.0
 41
0.0
 46
0.0
 71
     5
 72
     1
  1
8.5
  7
ROMANS
 73
     1
 44
1.0
  0
POINT
  5
28CB2
330
28067
100
AcDbEntity
  8
Defpoints
 62
     0
440
 16777216
100
AcDbPoint
 10
656.3421175333881
 20
526.9877732652136
 30
0.0
  0
POINT
  5
28CB3
330
28067
100
AcDbEntity
  8
Defpoints
 62
     0
440
 16777216
100
AcDbPoint
 10
664.8421175333881
 20
526.987773265217
 30
0.0
  0
POINT
  5
28CB4
330
28067
100
AcDbEntity
  8
Defpoints
 62
     0
440
 16777216
100
AcDbPoint
 10
664.8421175333881
 20
424.4877722551731
 30
0.0
  0
ENDBLK
  5
28069
330
28067
100
AcDbEntity
  8
0
100
AcDbBlockEnd
  0
BLOCK
  5
28098
330
28097
100
AcDbEntity
  8
0
100
AcDbBlockBegin
  2
*D28
 70
     1
 10
0.0
 20
0.0
 30
0.0
  3
*D28
  1

  0
LINE
  5
28CB5
330
28097
100
AcDbEntity
  8
AM_5
 62
     3
440
 16777216
100
AcDbLine
 10
395.3382519103277
 20
522.9877732652681
 30
0.0
 11
395.3382519103641
 21
432.8995203301592
 31
0.0
  0
LINE
  5
28CB6
330
28097
100
AcDbEntity
  8
AM_5
 62
     3
440
 16777216
100
AcDbLine
 10
403.8382519103277
 20
522.9877732652749
 30
0.0
 11
403.8382519103641
 21
432.8995203301627
 31
0.0
  0
LINE
  5
28CB7
330
28097
100
AcDbEntity
  8
AM_5
 62
     3
440
 16777216
100
AcDbLine
 10
385.3382519103625
 20
436.8995203301552
 30
0.0
 11
375.3382519103625
 21
436.8995203301512
 31
0.0
  0
LINE
  5
28CB8
330
28097
100
AcDbEntity
  8
AM_5
 62
     3
440
 16777216
100
AcDbLine
 10
413.8382519103625
 20
436.8995203301668
 30
0.0
 11
454.6953947675136
 21
436.8995203301833
 31
0.0
  0
LINE
  5
28CB9
330
28097
100
AcDbEntity
  8
AM_5
 62
     3
440
 16777216
100
AcDbLine
 10
395.3382519103625
 20
436.8995203301592
 30
0.0
 11
403.8382519103625
 21
436.8995203301627
 31
0.0
  0
SOLID
  5
28CBA
330
28097
100
AcDbEntity
  8
AM_5
 62
     3
440
 16777216
100
AcDbTrace
 10
385.3382519103618
 20
438.5661869968219
 30
0.0
 11
385.3382519103632
 21
435.2328536634885
 31
0.0
 12
395.3382519103625
 22
436.8995203301592
 32
0.0
 13
395.3382519103625
 23
436.8995203301592
 33
0.0
  0
SOLID
  5
28CBB
330
28097
100
AcDbEntity
  8
AM_5
 62
     3
440
 16777216
100
AcDbTrace
 10
413.8382519103618
 20
438.5661869968334
 30
0.0
 11
413.8382519103632
 21
435.2328536635001
 31
0.0
 12
403.8382519103625
 22
436.8995203301627
 32
0.0
 13
403.8382519103625
 23
436.8995203301627
 33
0.0
  0
MTEXT
  5
28CBC
330
28097
100
AcDbEntity
  8
AM_5
 62
     2
440
 16777216
100
AcDbMText
 10
439.2668233389378
 20
447.899520330177
 30
0.0
 40
10.0
 41
0.0
 46
0.0
 71
     5
 72
     1
  1
8.5
  7
ROMANS
 73
     1
 44
1.0
  0
POINT
  5
28CBD
330
28097
100
AcDbEntity
  8
Defpoints
 62
     0
440
 16777216
100
AcDbPoint
 10
395.3382519105392
 20
526.9877732651082
 30
0.0
  0
POINT
  5
28CBE
330
28097
100
AcDbEntity
  8
Defpoints
 62
     0
440
 16777216
100
AcDbPoint
 10
403.8382519105392
 20
526.9877732651116
 30
0.0
  0
POINT
  5
28CBF
330
28097
100
AcDbEntity
  8
Defpoints
 62
     0
440
 16777216
100
AcDbPoint
 10
403.8382519105392
 20
436.8995203299994
 30
0.0
  0
ENDBLK
  5
28099
330
28097
100
AcDbEntity
  8
0
100
AcDbBlockEnd
  0
BLOCK
  5
280C8
330
280C7
100
AcDbEntity
  8
0
100
AcDbBlockBegin
  2
*D29
 70
     1
 10
0.0
 20
0.0
 30
0.0
  3
*D29
  1

  0
LINE
  5
28CC0
330
280C7
100
AcDbEntity
  8
AM_5
 62
     3
440
 16777216
100
AcDbLine
 10
155.2686357690093
 20
522.9877732650738
 30
0.0
 11
155.2686357690413
 21
443.8306844651635
 31
0.0
  0
LINE
  5
28CC1
330
280C7
100
AcDbEntity
  8
AM_5
 62
     3
440
 16777216
100
AcDbLine
 10
163.7686357690093
 20
522.9877732650805
 30
0.0
 11
163.7686357690413
 21
443.8306844651669
 31
0.0
  0
LINE
  5
28CC2
330
280C7
100
AcDbEntity
  8
AM_5
 62
     3
440
 16777216
100
AcDbLine
 10
145.2686357690397
 20
447.8306844651594
 30
0.0
 11
135.2686357690397
 21
447.8306844651554
 31
0.0
  0
LINE
  5
28CC3
330
280C7
100
AcDbEntity
  8
AM_5
 62
     3
440
 16777216
100
AcDbLine
 10
173.7686357690397
 20
447.830684465171
 30
0.0
 11
214.6257786261827
 21
447.8306844651875
 31
0.0
  0
LINE
  5
28CC4
330
280C7
100
AcDbEntity
  8
AM_5
 62
     3
440
 16777216
100
AcDbLine
 10
155.2686357690397
 20
447.8306844651635
 30
0.0
 11
163.7686357690397
 21
447.8306844651669
 31
0.0
  0
SOLID
  5
28CC5
330
280C7
100
AcDbEntity
  8
AM_5
 62
     3
440
 16777216
100
AcDbTrace
 10
145.268635769039
 20
449.4973511318261
 30
0.0
 11
145.2686357690403
 21
446.1640177984928
 31
0.0
 12
155.2686357690397
 22
447.8306844651635
 32
0.0
 13
155.2686357690397
 23
447.8306844651635
 33
0.0
  0
SOLID
  5
28CC6
330
280C7
100
AcDbEntity
  8
AM_5
 62
     3
440
 16777216
100
AcDbTrace
 10
173.768635769039
 20
449.4973511318377
 30
0.0
 11
173.7686357690403
 21
446.1640177985043
 31
0.0
 12
163.7686357690397
 22
447.8306844651669
 32
0.0
 13
163.7686357690397
 23
447.8306844651669
 33
0.0
  0
MTEXT
  5
28CC7
330
280C7
100
AcDbEntity
  8
AM_5
 62
     2
440
 16777216
100
AcDbMText
 10
199.1972071976068
 20
458.8306844651813
 30
0.0
 40
10.0
 41
0.0
 46
0.0
 71
     5
 72
     1
  1
8.5
  7
ROMANS
 73
     1
 44
1.0
  0
POINT
  5
28CC8
330
280C7
100
AcDbEntity
  8
Defpoints
 62
     0
440
 16777216
100
AcDbPoint
 10
155.2686357692207
 20
526.987773265011
 30
0.0
  0
POINT
  5
28CC9
330
280C7
100
AcDbEntity
  8
Defpoints
 62
     0
440
 16777216
100
AcDbPoint
 10
163.7686357692207
 20
526.9877732650143
 30
0.0
  0
POINT
  5
28CCA
330
280C7
100
AcDbEntity
  8
Defpoints
 62
     0
440
 16777216
100
AcDbPoint
 10
163.7686357692207
 20
447.8306844651007
 30
0.0
  0
ENDBLK
  5
280C9
330
280C7
100
AcDbEntity
  8
0
100
AcDbBlockEnd
  0
BLOCK
  5
28244
330
28243
100
AcDbEntity
  8
0
100
AcDbBlockBegin
  2
*D30
 70
     1
 10
0.0
 20
0.0
 30
0.0
  3
*D30
  1

  0
LINE
  5
28CCB
330
28243
100
AcDbEntity
  8
AM_5
 62
     3
440
 16777216
100
AcDbLine
 10
110.7686357689372
 20
614.1433724454603
 30
0.0
 11
110.7686357689279
 21
625.5477305837982
 31
0.0
  0
LINE
  5
28CCC
330
28243
100
AcDbEntity
  8
AM_5
 62
     3
440
 16777216
100
AcDbLine
 10
22.02270398426703
 20
526.9877732649659
 30
0.0
 11
12.20867845024736
 21
526.9877732649578
 31
0.0
  0
ARC
  5
28CCD
330
28243
100
AcDbEntity
  8
AM_5
 62
     3
440
 16777216
100
AcDbCircle
 10
110.7686357690077
 20
526.9877732650377
 30
0.0
 40
94.55995731876041
100
AcDbArc
 50
96.0620281460775
 51
173.9379718540154
  0
SOLID
  5
28CCE
330
28243
100
AcDbEntity
  8
AM_5
 62
     3
440
 16777216
100
AcDbTrace
 10
100.6944976703533
 20
622.6833006382467
 30
0.0
 11
100.8707526850499
 21
619.3546304411702
 31
0.0
 12
110.7686357689311
 22
621.547730583798
 32
0.0
 13
110.7686357689311
 23
621.547730583798
 33
0.0
  0
SOLID
  5
28CCF
330
28243
100
AcDbEntity
  8
AM_5
 62
     3
440
 16777216
100
AcDbTrace
 10
18.40177859285916
 20
536.8856563488459
 30
0.0
 11
15.07310839578236
 21
537.0619113635371
 31
0.0
 12
16.20867845024739
 22
526.9877732649611
 32
0.0
 13
16.20867845024739
 23
526.9877732649611
 33
0.0
  0
MTEXT
  5
28CD0
330
28243
100
AcDbEntity
  8
AM_5
 62
     2
440
 16777216
100
AcDbMText
 10
36.12647412708925
 20
601.6299349068352
 30
0.0
 40
10.0
 41
0.0
 46
0.0
 71
     5
 72
     1
  1
90°
  7
ROMANS
 11
0.7071067811859746
 21
0.7071067811871204
 31
0.0
 73
     1
 44
1.0
  0
POINT
  5
28CD1
330
28243
100
AcDbEntity
  8
Defpoints
 62
     0
440
 16777216
100
AcDbPoint
 10
63.48865710980743
 20
608.8790984837924
 30
0.0
  0
POINT
  5
28CD2
330
28243
100
AcDbEntity
  8
Defpoints
 62
     0
440
 16777216
100
AcDbPoint
 10
110.7686357692544
 20
444.3515043360715
 30
0.0
  0
POINT
  5
28CD3
330
28243
100
AcDbEntity
  8
Defpoints
 62
     0
440
 16777216
100
AcDbPoint
 10
26.02270398448013
 20
526.9877732649586
 30
0.0
  0
POINT
  5
28CD4
330
28243
100
AcDbEntity
  8
Defpoints
 62
     0
440
 16777216
100
AcDbPoint
 10
195.5632287508441
 20
526.9877732650273
 30
0.0
  0
POINT
  5
28CD5
330
28243
100
AcDbEntity
  8
Defpoints
 62
     0
440
 16777216
100
AcDbPoint
 10
110.7686357691871
 20
610.1433724454155
 30
0.0
  0
ENDBLK
  5
28245
330
28243
100
AcDbEntity
  8
0
100
AcDbBlockEnd
  0
BLOCK
  5
2828B
330
2828A
100
AcDbEntity
  8
0
100
AcDbBlockBegin
  2
*D31
 70
     1
 10
0.0
 20
0.0
 30
0.0
  3
*D31
  1

  0
LINE
  5
28CD6
330
2828A
100
AcDbEntity
  8
AM_5
 62
     3
440
 16777216
100
AcDbLine
 10
340.3382519102417
 20
626.7019012113767
 30
0.0
 11
340.3382519102315
 21
639.4756915457061
 31
0.0
  0
LINE
  5
28CD7
330
2828A
100
AcDbEntity
  8
AM_5
 62
     3
440
 16777216
100
AcDbLine
 10
237.9481670485558
 20
526.9877732651406
 30
0.0
 11
227.8503336298393
 21
526.9877732651325
 31
0.0
  0
ARC
  5
28CD8
330
2828A
100
AcDbEntity
  8
AM_5
 62
     3
440
 16777216
100
AcDbCircle
 10
340.3382519103219
 20
526.9877732652235
 30
0.0
 40
108.4879182804826
100
AcDbArc
 50
95.28317656039798
 51
174.7168234396945
  0
SOLID
  5
28CD9
330
2828A
100
AcDbEntity
  8
AM_5
 62
     3
440
 16777216
100
AcDbTrace
 10
330.2720646433737
 20
636.6797063654919
 30
0.0
 11
330.4256915811113
 21
633.3499150994946
 31
0.0
 12
340.3382519102347
 22
635.475691545706
 32
0.0
 13
340.3382519102347
 23
635.475691545706
 33
0.0
  0
SOLID
  5
28CDA
330
2828A
100
AcDbEntity
  8
AM_5
 62
     3
440
 16777216
100
AcDbTrace
 10
233.9761100760347
 20
536.9003335942625
 30
0.0
 11
230.6463188100371
 21
537.0539605319948
 31
0.0
 12
231.8503336298393
 22
526.9877732651357
 32
0.0
 13
231.8503336298393
 23
526.9877732651357
 33
0.0
  0
MTEXT
  5
28CDB
330
2828A
100
AcDbEntity
  8
AM_5
 62
     2
440
 16777216
100
AcDbMText
 10
255.8475346242604
 20
611.4784905511488
 30
0.0
 40
10.0
 41
0.0
 46
0.0
 71
     5
 72
     1
  1
90°
  7
ROMANS
 11
0.7071067811859777
 21
0.7071067811871173
 31
0.0
 73
     1
 44
1.0
  0
POINT
  5
28CDC
330
2828A
100
AcDbEntity
  8
Defpoints
 62
     0
440
 16777216
100
AcDbPoint
 10
286.0942927702558
 20
620.9410664996525
 30
0.0
  0
POINT
  5
28CDD
330
2828A
100
AcDbEntity
  8
Defpoints
 62
     0
440
 16777216
100
AcDbPoint
 10
340.3382519105729
 20
431.9622027480355
 30
0.0
  0
POINT
  5
28CDE
330
2828A
100
AcDbEntity
  8
Defpoints
 62
     0
440
 16777216
100
AcDbPoint
 10
241.9481670487688
 20
526.9877732650463
 30
0.0
  0
POINT
  5
28CDF
330
2828A
100
AcDbEntity
  8
Defpoints
 62
     0
440
 16777216
100
AcDbPoint
 10
438.0354524250018
 20
526.9877732651256
 30
0.0
  0
POINT
  5
28CE0
330
2828A
100
AcDbEntity
  8
Defpoints
 62
     0
440
 16777216
100
AcDbPoint
 10
340.3382519104965
 20
622.7019012112393
 30
0.0
  0
ENDBLK
  5
2828C
330
2828A
100
AcDbEntity
  8
0
100
AcDbBlockEnd
  0
BLOCK
  5
282DE
330
282DD
100
AcDbEntity
  8
0
100
AcDbBlockBegin
  2
*D32
 70
     1
 10
0.0
 20
0.0
 30
0.0
  3
*D32
  1

  0
LINE
  5
28CE1
330
282DD
100
AcDbEntity
  8
AM_5
 62
     3
440
 16777216
100
AcDbLine
 10
590.8421175330819
 20
640.9410369019494
 30
0.0
 11
590.8421175330766
 21
647.4904188607844
 31
0.0
  0
LINE
  5
28CE2
330
282DD
100
AcDbEntity
  8
AM_5
 62
     3
440
 16777216
100
AcDbLine
 10
475.8155981488699
 20
526.9877732653331
 30
0.0
 11
470.339471937816
 21
526.9877732653287
 31
0.0
  0
ARC
  5
28CE3
330
282DD
100
AcDbEntity
  8
AM_5
 62
     3
440
 16777216
100
AcDbCircle
 10
590.8421175331744
 20
526.987773265426
 30
0.0
 40
116.5026455953583
100
AcDbArc
 50
94.91949197904495
 51
175.0805080210478
  0
SOLID
  5
28CE4
330
282DD
100
AcDbEntity
  8
AM_5
 62
     3
440
 16777216
100
AcDbTrace
 10
580.7798021944938
 20
644.7263750916576
 30
0.0
 11
580.9228604622422
 21
641.3961130234204
 31
0.0
 12
590.8421175330798
 22
643.4904188607843
 32
0.0
 13
590.8421175330798
 23
643.4904188607843
 33
0.0
  0
SOLID
  5
28CE5
330
282DD
100
AcDbEntity
  8
AM_5
 62
     3
440
 16777216
100
AcDbTrace
 10
476.4337777751639
 20
536.907030336173
 30
0.0
 11
473.1035157069264
 21
537.0500886039159
 31
0.0
 12
474.3394719378161
 22
526.987773265332
 32
0.0
 13
474.3394719378161
 23
526.987773265332
 33
0.0
  0
MTEXT
  5
28CE6
330
282DD
100
AcDbEntity
  8
AM_5
 62
     2
440
 16777216
100
AcDbMText
 10
500.6841322133984
 20
617.1457585850561
 30
0.0
 40
10.0
 41
0.0
 46
0.0
 71
     5
 72
     1
  1
90°
  7
ROMANS
 11
0.7071067811859746
 21
0.7071067811871204
 31
0.0
 73
     1
 44
1.0
  0
POINT
  5
28CE7
330
282DD
100
AcDbEntity
  8
Defpoints
 62
     0
440
 16777216
100
AcDbPoint
 10
532.5907947356673
 20
627.882023958839
 30
0.0
  0
POINT
  5
28CE8
330
282DD
100
AcDbEntity
  8
Defpoints
 62
     0
440
 16777216
100
AcDbPoint
 10
479.8155981490829
 20
526.9877732651423
 30
0.0
  0
POINT
  5
28CE9
330
282DD
100
AcDbEntity
  8
Defpoints
 62
     0
440
 16777216
100
AcDbPoint
 10
590.8421175334345
 20
411.467685772181
 30
0.0
  0
POINT
  5
28CEA
330
282DD
100
AcDbEntity
  8
Defpoints
 62
     0
440
 16777216
100
AcDbPoint
 10
590.8421175333426
 20
636.9410369017105
 30
0.0
  0
POINT
  5
28CEB
330
282DD
100
AcDbEntity
  8
Defpoints
 62
     0
440
 16777216
100
AcDbPoint
 10
707.3063873141427
 20
526.9877732652341
 30
0.0
  0
ENDBLK
  5
282DF
330
282DD
100
AcDbEntity
  8
0
100
AcDbBlockEnd
  0
BLOCK
  5
28325
330
28324
100
AcDbEntity
  8
0
100
AcDbBlockBegin
  2
*D33
 70
     1
 10
0.0
 20
0.0
 30
0.0
  3
*D33
  1

  0
ARC
  5
28CEC
330
28324
100
AcDbEntity
  8
AM_5
 62
     3
440
 16777216
100
AcDbCircle
 10
877.4604722877077
 20
526.9877732656578
 30
0.0
 40
136.2842853280156
100
AcDbArc
 50
94.20508062399519
 51
175.7949193760974
  0
SOLID
  5
28CED
330
28324
100
AcDbEntity
  8
AM_5
 62
     3
440
 16777216
100
AcDbTrace
 10
867.4060579134471
 20
664.5707230502013
 30
0.0
 11
867.5283512991217
 21
661.2396338230967
 31
0.0
 12
877.4604722875978
 22
663.2720585936734
 32
0.0
 13
877.4604722875978
 23
663.2720585936734
 33
0.0
  0
SOLID
  5
28CEE
330
28324
100
AcDbEntity
  8
AM_5
 62
     3
440
 16777216
100
AcDbTrace
 10
743.2086117302526
 20
536.9198942540266
 30
0.0
 11
739.8775225031479
 21
537.0421876396961
 31
0.0
 12
741.176186959692
 22
526.9877732655475
 32
0.0
 13
741.176186959692
 23
526.9877732655475
 33
0.0
  0
MTEXT
  5
28CEF
330
28324
100
AcDbEntity
  8
AM_5
 62
     2
440
 16777216
100
AcDbMText
 10
773.3147553699692
 20
631.133490183228
 30
0.0
 40
10.0
 41
0.0
 46
0.0
 71
     5
 72
     1
  1
90°
  7
ROMANS
 11
0.7071067811859765
 21
0.7071067811871186
 31
0.0
 73
     1
 44
1.0
  0
POINT
  5
28CF0
330
28324
100
AcDbEntity
  8
Defpoints
 62
     0
440
 16777216
100
AcDbPoint
 10
809.3183296238653
 20
645.0134264959439
 30
0.0
  0
POINT
  5
28CF1
330
28324
100
AcDbEntity
  8
Defpoints
 62
     0
440
 16777216
100
AcDbPoint
 10
736.1233283201329
 20
526.9877732652457
 30
0.0
  0
POINT
  5
28CF2
330
28324
100
AcDbEntity
  8
Defpoints
 62
     0
440
 16777216
100
AcDbPoint
 10
877.4604722878641
 20
667.4295802163278
 30
0.0
  0
POINT
  5
28CF3
330
28324
100
AcDbEntity
  8
Defpoints
 62
     0
440
 16777216
100
AcDbPoint
 10
877.4604722879752
 20
391.632477634034
 30
0.0
  0
POINT
  5
28CF4
330
28324
100
AcDbEntity
  8
Defpoints
 62
     0
440
 16777216
100
AcDbPoint
 10
1017.869816853295
 20
526.9877732653597
 30
0.0
  0
ENDBLK
  5
28326
330
28324
100
AcDbEntity
  8
0
100
AcDbBlockEnd
  0
BLOCK
  5
28590
330
2858F
100
AcDbEntity
  8
0
100
AcDbBlockBegin
  2
*U34
 70
     1
 10
0.0
 20
0.0
 30
0.0
  3
*U34
  1

  0
ENDBLK
  5
28591
330
2858F
100
AcDbEntity
  8
0
100
AcDbBlockEnd
  0
BLOCK
  5
285B3
330
285B1
100
AcDbEntity
  8
0
100
AcDbBlockBegin
  2
GENAXEH
 70
     0
 10
0.0
 20
0.0
 30
0.0
  3
GENAXEH
  1

  0
LINE
  5
285B2
330
285B1
100
AcDbEntity
  8
0
100
AcDbLine
 10
-1.0
 20
0.0
 30
0.0
 11
1.0
 21
0.0
 31
0.0
  0
ENDBLK
  5
285B4
330
285B1
100
AcDbEntity
  8
0
100
AcDbBlockEnd
  0
BLOCK
  5
285D0
330
285CF
100
AcDbEntity
  8
0
100
AcDbBlockBegin
  2
a
 70
     0
 10
0.0
 20
0.0
 30
0.0
  3
a
  1

  0
MTEXT
  5
285D1
330
285CF
100
AcDbEntity
  8
0
 62
     4
100
AcDbMText
 10
42.13823516992348
 20
10.42146119851554
 30
0.0
 40
1.35
 41
75.00000000000009
 46
11.99999999999974
 71
     5
 72
     5
  3
\pxqc;{\H0.88889x;IN CASO DI DUBBIO O DI CHIARIMENTO RIVOLGERSI ESCLUSIVAMENTE ALL'UFFICIO TECNICO MAICO ITALIA\PIF IN DOUBT PLEASE REFER TO MAICO TECHNICAL DEPARTMENT\P\H0.41667x;\P\H2.4x;Le quote            cerchiate sono critiche per il controllo 
  1
qualità in accettazione\PCircled dimensions are critical for acceptance quality control}
  7
VERDANA
 73
     1
 44
1.0
  0
LINE
  5
285D3
330
285CF
100
AcDbEntity
  8
5
100
AcDbLine
 10
18.53892827467921
 20
6.693436922966697
 30
0.0
 11
22.44749970325066
 21
6.693436922966697
 31
0.0
  0
LINE
  5
285D4
330
285CF
100
AcDbEntity
  8
5
100
AcDbLine
 10
22.44749970325066
 20
8.97343692296667
 30
0.0
 11
18.53892827467921
 21
8.97343692296667
 31
0.0
  0
ARC
  5
285D5
330
285CF
100
AcDbEntity
  8
5
  6
Continuous
100
AcDbCircle
 10
22.44749970325066
 20
7.833436922966683
 30
0.0
 40
1.139999999999991
100
AcDbArc
 50
270.0
 51
90.0
  0
ARC
  5
285D6
330
285CF
100
AcDbEntity
  8
5
  6
Continuous
100
AcDbCircle
 10
18.53892827467921
 20
7.833436922966683
 30
0.0
 40
1.139999999999986
100
AcDbArc
 50
90.0
 51
270.0
  0
LINE
  5
285D7
330
285CF
100
AcDbEntity
  8
0
100
AcDbLine
 10
4.999999999999915
 20
16.54736632171148
 30
0.0
 11
5.0
 21
4.547366321711479
 31
0.0
  0
LINE
  5
285D8
330
285CF
100
AcDbEntity
  8
0
100
AcDbLine
 10
79.99999999999991
 20
16.54736632171161
 30
0.0
 11
80.0
 21
4.547366321711607
 31
0.0
  0
LINE
  5
285D9
330
285CF
100
AcDbEntity
  8
0
100
AcDbLine
 10
79.99999999999991
 20
16.54736632171135
 30
0.0
 11
4.999999999999915
 21
16.54736632171148
 31
0.0
  0
LINE
  5
285DA
330
285CF
100
AcDbEntity
  8
0
100
AcDbLine
 10
80.0
 20
4.547366321711351
 30
0.0
 11
4.999999999999915
 21
4.547366321711479
 31
0.0
  0
ENDBLK
  5
285DB
330
285CF
100
AcDbEntity
  8
0
100
AcDbBlockEnd
  0
BLOCK
  5
285DD
330
285DC
100
AcDbEntity
  8
0
100
AcDbBlockBegin
  2
b
 70
     0
 10
0.0
 20
0.0
 30
0.0
  3
b
  1

  0
LINE
  5
285DE
330
285DC
100
AcDbEntity
  8
0
100
AcDbLine
 10
264.9999999999997
 20
189.9999999999999
 30
0.0
 11
276.9999999999997
 21
189.9999999999999
 31
0.0
  0
MTEXT
  5
285DF
330
285DC
100
AcDbEntity
  8
0
 62
     4
100
AcDbMText
 10
271.1259051231957
 20
152.1382351699234
 30
0.0
 40
1.35
 41
75.00000000000009
 46
11.99999999999974
 71
     5
 72
     5
  3
\pxqc;{\H0.88889x;IN CASO DI DUBBIO O DI CHIARIMENTO RIVOLGERSI ESCLUSIVAMENTE ALL'UFFICIO TECNICO MAICO ITALIA\PIF IN DOUBT PLEASE REFER TO MAICO TECHNICAL DEPARTMENT\P\H0.41667x;\P\H2.4x;Le quote            cerchiate sono critiche per il controllo 
  1
qualità in accettazione\PCircled dimensions are critical for acceptance quality control}
  7
VERDANA
 11
6.123233995736766E-17
 21
1.0
 31
0.0
 73
     1
 44
1.0
  0
LINE
  5
285E1
330
285DC
100
AcDbEntity
  8
5
100
AcDbLine
 10
274.8539293987446
 20
128.5389282746792
 30
0.0
 11
274.8539293987446
 21
132.4474997032506
 31
0.0
  0
LINE
  5
285E2
330
285DC
100
AcDbEntity
  8
5
100
AcDbLine
 10
272.5739293987446
 20
132.4474997032506
 30
0.0
 11
272.5739293987446
 21
128.5389282746792
 31
0.0
  0
ARC
  5
285E3
330
285DC
100
AcDbEntity
  8
5
  6
Continuous
100
AcDbCircle
 10
273.7139293987446
 20
132.4474997032506
 30
0.0
 40
1.139999999999991
100
AcDbArc
 50
0.0
 51
180.0
  0
ARC
  5
285E4
330
285DC
100
AcDbEntity
  8
5
  6
Continuous
100
AcDbCircle
 10
273.7139293987446
 20
128.5389282746792
 30
0.0
 40
1.139999999999986
100
AcDbArc
 50
180.0
 51
0.0
  0
LINE
  5
285E5
330
285DC
100
AcDbEntity
  8
0
100
AcDbLine
 10
264.9999999999998
 20
114.9999999999999
 30
0.0
 11
276.9999999999998
 21
115.0
 31
0.0
  0
LINE
  5
285E6
330
285DC
100
AcDbEntity
  8
0
100
AcDbLine
 10
264.9999999999999
 20
189.9999999999999
 30
0.0
 11
264.9999999999998
 21
114.9999999999999
 31
0.0
  0
LINE
  5
285E7
330
285DC
100
AcDbEntity
  8
0
100
AcDbLine
 10
276.9999999999999
 20
190.0
 30
0.0
 11
276.9999999999998
 21
114.9999999999999
 31
0.0
  0
ENDBLK
  5
285E8
330
285DC
100
AcDbEntity
  8
0
100
AcDbBlockEnd
  0
BLOCK
  5
285EA
330
285E9
100
AcDbEntity
  8
0
100
AcDbBlockBegin
  2
cornice
 70
     0
 10
0.0
 20
0.0
 30
0.0
  3
cornice
  1

  0
LINE
  5
285EB
330
285E9
100
AcDbEntity
  8
0
 62
     6
100
AcDbLine
 10
282.0
 20
0.0
 30
0.0
 11
0.0
 21
0.0
 31
0.0
  0
LINE
  5
285EC
330
285E9
100
AcDbEntity
  8
0
 62
     6
100
AcDbLine
 10
0.0
 20
0.0
 30
0.0
 11
0.0
 21
194.9999999999999
 31
0.0
  0
LINE
  5
285ED
330
285E9
100
AcDbEntity
  8
0
 62
     6
100
AcDbLine
 10
0.0
 20
194.9999999999999
 30
0.0
 11
282.0
 21
194.9999999999999
 31
0.0
  0
LINE
  5
285EE
330
285E9
100
AcDbEntity
  8
0
 62
     6
100
AcDbLine
 10
282.0
 20
194.9999999999999
 30
0.0
 11
282.0
 21
0.0
 31
0.0
  0
ENDBLK
  5
285EF
330
285E9
100
AcDbEntity
  8
0
100
AcDbBlockEnd
  0
ENDSEC
  0
SECTION
  2
ENTITIES
  0
TEXT
  5
3089
330
1F
100
AcDbEntity
  8
0
 62
     4
100
AcDbText
 10
5103.445087189407
 20
-925.2019868879812
 30
0.0
 40
1.44
  1

  7
ROMANS
 72
     1
 11
5103.445087189407
 21
-925.2019868879812
 31
0.0
100
AcDbText
  0
TEXT
  5
308A
330
1F
100
AcDbEntity
  8
0
 62
     2
100
AcDbText
 10
5101.414017491647
 20
-915.9830111364979
 30
0.0
 40
2.3
  1

 41
0.9
  7
ROMANS
 72
     1
 11
5101.414017491647
 21
-915.9830111364979
 31
0.0
100
AcDbText
  0
MTEXT
  5
52F1
330
1F
100
AcDbEntity
  8
4
100
AcDbMText
 10
247.6325991821456
 20
913.6951779908809
 30
0.0
 40
9.0
 41
0.0
 46
0.0
 71
     7
 72
     5
  1

 11
-1.836909530733566E-16
 21
-1.0
 31
0.0
 73
     1
 44
1.0
  0
TEXT
  5
52F2
330
1F
100
AcDbEntity
  8
0
 62
     4
100
AcDbText
 10
20.12946396169053
 20
1055.063259893984
 30
0.0
 40
5.760000000000001
  1

 50
270.0
  7
ROMANS
 72
     1
 11
20.12946396169053
 21
1055.063259893984
 31
0.0
100
AcDbText
  0
TEXT
  5
52F3
330
1F
100
AcDbEntity
  8
0
 62
     4
100
AcDbText
 10
2.672347990857702
 20
905.8110054009627
 30
0.0
 40
6.912000000000002
  1

 50
270.0
  7
ROMANS
 72
     1
 11
2.672347990857702
 21
905.8110054009627
 31
0.0
100
AcDbText
  0
TEXT
  5
52F4
330
1F
100
AcDbEntity
  8
0
 62
     2
100
AcDbText
 10
57.00536696762396
 20
1063.187538685022
 30
0.0
 40
9.2
  1

 50
270.0
 41
0.9
  7
ROMANS
 72
     1
 11
57.00536696762396
 21
1063.187538685022
 31
0.0
100
AcDbText
  0
TEXT
  5
52F5
330
1F
100
AcDbEntity
  8
0
 62
     4
100
AcDbText
 10
2.920904577730596
 20
1177.379953900031
 30
0.0
 40
5.6
  1

 50
270.0
 41
0.9
  7
ROMANS
 72
     1
 11
2.920904577730596
 21
1177.379953900031
 31
0.0
100
AcDbText
  0
MTEXT
  5
52F6
330
1F
100
AcDbEntity
  8
4
100
AcDbMText
 10
1.074012144498738
 20
1378.084849559649
 30
0.0
 40
9.0
 41
0.0
 46
0.0
 71
     7
 72
     5
  1

 11
-1.836909530733566E-16
 21
-1.0
 31
0.0
 73
     1
 44
1.0
  0
MTEXT
  5
535D
330
1F
100
AcDbEntity
  8
4
100
AcDbMText
 10
830.5427659874008
 20
1003.71716730084
 30
0.0
 40
9.0
 41
0.0
 46
0.0
 71
     7
 72
     5
  1

 11
-1.836909530733566E-16
 21
-1.0
 31
0.0
 73
     1
 44
1.0
  0
TEXT
  5
535E
330
1F
100
AcDbEntity
  8
0
 62
     4
100
AcDbText
 10
633.9556516422977
 20
1075.886024989313
 30
0.0
 40
5.760000000000001
  1

 50
270.0
  7
ROMANS
 72
     1
 11
633.9556516422977
 21
1075.886024989313
 31
0.0
100
AcDbText
  0
TEXT
  5
535F
330
1F
100
AcDbEntity
  8
0
 62
     4
100
AcDbText
 10
616.4985356714649
 20
926.6337704962913
 30
0.0
 40
6.912000000000002
  1

 50
270.0
  7
ROMANS
 72
     1
 11
616.4985356714649
 21
926.6337704962913
 31
0.0
100
AcDbText
  0
TEXT
  5
5360
330
1F
100
AcDbEntity
  8
0
 62
     2
100
AcDbText
 10
670.8315546482311
 20
1084.010303780351
 30
0.0
 40
9.2
  1

 50
270.0
 41
0.9
  7
ROMANS
 72
     1
 11
670.8315546482311
 21
1084.010303780351
 31
0.0
100
AcDbText
  0
TEXT
  5
5361
330
1F
100
AcDbEntity
  8
0
 62
     4
100
AcDbText
 10
616.7470922583377
 20
1198.202718995359
 30
0.0
 40
5.6
  1

 50
270.0
 41
0.9
  7
ROMANS
 72
     1
 11
616.7470922583377
 21
1198.202718995359
 31
0.0
100
AcDbText
  0
MTEXT
  5
54EC
330
1F
100
AcDbEntity
  8
4
100
AcDbMText
 10
1450.042386182836
 20
1186.110411664859
 30
0.0
 40
9.0
 41
0.0
 46
0.0
 71
     7
 72
     5
  1

 11
-1.836909530733566E-16
 21
-1.0
 31
0.0
 73
     1
 44
1.0
  0
TEXT
  5
54ED
330
1F
100
AcDbEntity
  8
0
 62
     4
100
AcDbText
 10
1253.372226925726
 20
1027.163433764281
 30
0.0
 40
5.760000000000001
  1

 50
270.0
  7
ROMANS
 72
     1
 11
1253.372226925726
 21
1027.163433764281
 31
0.0
100
AcDbText
  0
TEXT
  5
54EE
330
1F
100
AcDbEntity
  8
0
 62
     4
100
AcDbText
 10
1235.915110954893
 20
877.9111792712591
 30
0.0
 40
6.912000000000002
  1

 50
270.0
  7
ROMANS
 72
     1
 11
1235.915110954893
 21
877.9111792712591
 31
0.0
100
AcDbText
  0
TEXT
  5
54EF
330
1F
100
AcDbEntity
  8
0
 62
     2
100
AcDbText
 10
1290.248129931659
 20
1035.287712555319
 30
0.0
 40
9.2
  1

 50
270.0
 41
0.9
  7
ROMANS
 72
     1
 11
1290.248129931659
 21
1035.287712555319
 31
0.0
100
AcDbText
  0
TEXT
  5
54F0
330
1F
100
AcDbEntity
  8
0
 62
     4
100
AcDbText
 10
1236.163667541766
 20
1149.480127770327
 30
0.0
 40
5.6
  1

 50
270.0
 41
0.9
  7
ROMANS
 72
     1
 11
1236.163667541766
 21
1149.480127770327
 31
0.0
100
AcDbText
  0
MTEXT
  5
56DF
330
1F
100
AcDbEntity
  8
4
100
AcDbMText
 10
-1657.013371081067
 20
2801.522092150664
 30
0.0
 40
9.0
 41
0.0
 46
0.0
 71
     7
 72
     5
  1

 11
-1.836909530733566E-16
 21
-1.0
 31
0.0
 73
     1
 44
1.0
  0
TEXT
  5
56E0
330
1F
100
AcDbEntity
  8
0
 62
     4
100
AcDbText
 10
-1884.516506301522
 20
2942.890174053768
 30
0.0
 40
5.760000000000001
  1

 50
270.0
  7
ROMANS
 72
     1
 11
-1884.516506301522
 21
2942.890174053768
 31
0.0
100
AcDbText
  0
TEXT
  5
56E1
330
1F
100
AcDbEntity
  8
0
 62
     4
100
AcDbText
 10
-1901.973622272355
 20
2793.637919560746
 30
0.0
 40
6.912000000000002
  1

 50
270.0
  7
ROMANS
 72
     1
 11
-1901.973622272355
 21
2793.637919560746
 31
0.0
100
AcDbText
  0
TEXT
  5
56E2
330
1F
100
AcDbEntity
  8
0
 62
     2
100
AcDbText
 10
-1847.640603295589
 20
2951.014452844805
 30
0.0
 40
9.2
  1

 50
270.0
 41
0.9
  7
ROMANS
 72
     1
 11
-1847.640603295589
 21
2951.014452844805
 31
0.0
100
AcDbText
  0
TEXT
  5
56E3
330
1F
100
AcDbEntity
  8
0
 62
     4
100
AcDbText
 10
-1901.725065685482
 20
3065.206868059814
 30
0.0
 40
5.6
  1

 50
270.0
 41
0.9
  7
ROMANS
 72
     1
 11
-1901.725065685482
 21
3065.206868059814
 31
0.0
100
AcDbText
  0
MTEXT
  5
56E4
330
1F
100
AcDbEntity
  8
4
100
AcDbMText
 10
-1903.571958118714
 20
3265.911763719432
 30
0.0
 40
9.0
 41
0.0
 46
0.0
 71
     7
 72
     5
  1

 11
-1.836909530733566E-16
 21
-1.0
 31
0.0
 73
     1
 44
1.0
  0
MTEXT
  5
5914
330
1F
100
AcDbEntity
  8
4
100
AcDbMText
 10
1738.923005565985
 20
-5164.996293540606
 30
0.0
 40
9.0
 41
0.0
 46
0.0
 71
     7
 72
     5
  1

 11
-1.836909530733566E-16
 21
-1.0
 31
0.0
 73
     1
 44
1.0
  0
TEXT
  5
5915
330
1F
100
AcDbEntity
  8
0
 62
     4
100
AcDbText
 10
1448.052953298168
 20
-5198.212392314317
 30
0.0
 40
7.200000000000001
  1

 50
270.0
  7
ROMANS
 72
     1
 11
1448.052953298168
 21
-5198.212392314317
 31
0.0
100
AcDbText
  0
TEXT
  5
5916
330
1F
100
AcDbEntity
  8
0
 62
     4
100
AcDbText
 10
1426.231558334627
 20
-5384.777710430594
 30
0.0
 40
8.640000000000002
  1

 50
270.0
  7
ROMANS
 72
     1
 11
1426.231558334627
 21
-5384.777710430594
 31
0.0
100
AcDbText
  0
TEXT
  5
5917
330
1F
100
AcDbEntity
  8
0
 62
     2
100
AcDbText
 10
1494.147832055585
 20
-5188.05704382552
 30
0.0
 40
11.5
  1

 50
270.0
 41
0.9
  7
ROMANS
 72
     1
 11
1494.147832055585
 21
-5188.05704382552
 31
0.0
100
AcDbText
  0
TEXT
  5
5918
330
1F
100
AcDbEntity
  8
0
 62
     4
100
AcDbText
 10
1426.542254068218
 20
-5045.316524806759
 30
0.0
 40
7.0
  1

 50
270.0
 41
0.9
  7
ROMANS
 72
     1
 11
1426.542254068218
 21
-5045.316524806759
 31
0.0
100
AcDbText
  0
MTEXT
  5
5E52
330
1F
100
AcDbEntity
  8
4
100
AcDbMText
 10
1268.097800237656
 20
-4615.477386599714
 30
0.0
 40
9.0
 41
0.0
 46
0.0
 71
     7
 72
     5
  1

 73
     1
 44
1.0
  0
TEXT
  5
5E53
330
1F
100
AcDbEntity
  8
0
 62
     4
100
AcDbText
 10
1126.729718334553
 20
-4842.980521820169
 30
0.0
 40
5.760000000000001
  1

  7
ROMANS
 72
     1
 11
1126.729718334553
 21
-4842.980521820169
 31
0.0
100
AcDbText
  0
TEXT
  5
5E54
330
1F
100
AcDbEntity
  8
0
 62
     4
100
AcDbText
 10
1275.981972827574
 20
-4860.437637791002
 30
0.0
 40
6.912000000000002
  1

  7
ROMANS
 72
     1
 11
1275.981972827574
 21
-4860.437637791002
 31
0.0
100
AcDbText
  0
TEXT
  5
5E55
330
1F
100
AcDbEntity
  8
0
 62
     2
100
AcDbText
 10
1118.605439543515
 20
-4806.104618814235
 30
0.0
 40
9.2
  1

 41
0.9
  7
ROMANS
 72
     1
 11
1118.605439543515
 21
-4806.104618814235
 31
0.0
100
AcDbText
  0
TEXT
  5
5E56
330
1F
100
AcDbEntity
  8
0
 62
     4
100
AcDbText
 10
1004.413024328506
 20
-4860.189081204129
 30
0.0
 40
5.6
  1

 41
0.9
  7
ROMANS
 72
     1
 11
1004.413024328506
 21
-4860.189081204129
 31
0.0
100
AcDbText
  0
MTEXT
  5
5E57
330
1F
100
AcDbEntity
  8
4
100
AcDbMText
 10
803.7081286688881
 20
-4862.035973637361
 30
0.0
 40
9.0
 41
0.0
 46
0.0
 71
     7
 72
     5
  1

 73
     1
 44
1.0
  0
TEXT
  5
1D442
330
1F
100
AcDbEntity
  8
0
 62
     4
100
AcDbText
 10
9794.348142573459
 20
-71.1812123540268
 30
0.0
 40
1.44
  1

  7
ROMANS
 72
     1
 11
9794.348142573459
 21
-71.1812123540268
 31
0.0
100
AcDbText
  0
TEXT
  5
1D443
330
1F
100
AcDbEntity
  8
0
 62
     2
100
AcDbText
 10
9792.317072875696
 20
-61.96223660254429
 30
0.0
 40
2.3
  1

 41
0.9
  7
ROMANS
 72
     1
 11
9792.317072875696
 21
-61.96223660254429
 31
0.0
100
AcDbText
  0
MTEXT
  5
1D444
330
1F
100
AcDbEntity
  8
4
100
AcDbMText
 10
4938.535654565454
 20
1767.715952522872
 30
0.0
 40
9.0
 41
0.0
 46
0.0
 71
     7
 72
     5
  1

 11
4.040909046178904E-13
 21
-1.0
 31
0.0
 73
     1
 44
1.0
  0
TEXT
  5
1D445
330
1F
100
AcDbEntity
  8
0
 62
     4
100
AcDbText
 10
4711.032519344943
 20
1909.084034425884
 30
0.0
 40
5.760000000000001
  1

 50
270.0
  7
ROMANS
 72
     1
 11
4711.032519344943
 21
1909.084034425884
 31
0.0
100
AcDbText
  0
TEXT
  5
1D446
330
1F
100
AcDbEntity
  8
0
 62
     4
100
AcDbText
 10
4693.57540337417
 20
1759.831779932855
 30
0.0
 40
6.912000000000002
  1

 50
270.0
  7
ROMANS
 72
     1
 11
4693.57540337417
 21
1759.831779932855
 31
0.0
100
AcDbText
  0
TEXT
  5
1D447
330
1F
100
AcDbEntity
  8
0
 62
     2
100
AcDbText
 10
4747.908422350873
 20
1917.208313216936
 30
0.0
 40
9.2
  1

 50
270.0
 41
0.9
  7
ROMANS
 72
     1
 11
4747.908422350873
 21
1917.208313216936
 31
0.0
100
AcDbText
  0
TEXT
  5
1D448
330
1F
100
AcDbEntity
  8
0
 62
     4
100
AcDbText
 10
4693.823959960933
 20
2031.400728431923
 30
0.0
 40
5.6
  1

 50
270.0
 41
0.9
  7
ROMANS
 72
     1
 11
4693.823959960933
 21
2031.400728431923
 31
0.0
100
AcDbText
  0
MTEXT
  5
1D449
330
1F
100
AcDbEntity
  8
4
100
AcDbMText
 10
4691.97706752762
 20
2232.10562409154
 30
0.0
 40
9.0
 41
0.0
 46
0.0
 71
     7
 72
     5
  1

 11
4.040909046178904E-13
 21
-1.0
 31
0.0
 73
     1
 44
1.0
  0
MTEXT
  5
1D44A
330
1F
100
AcDbEntity
  8
4
100
AcDbMText
 10
5521.445821370673
 20
1857.737941833067
 30
0.0
 40
9.0
 41
0.0
 46
0.0
 71
     7
 72
     5
  1

 11
4.040909046178904E-13
 21
-1.0
 31
0.0
 73
     1
 44
1.0
  0
TEXT
  5
1D44B
330
1F
100
AcDbEntity
  8
0
 62
     4
100
AcDbText
 10
5324.858707025541
 20
1929.90679952146
 30
0.0
 40
5.760000000000001
  1

 50
270.0
  7
ROMANS
 72
     1
 11
5324.858707025541
 21
1929.90679952146
 31
0.0
100
AcDbText
  0
TEXT
  5
1D44C
330
1F
100
AcDbEntity
  8
0
 62
     4
100
AcDbText
 10
5307.401591054769
 20
1780.654545028432
 30
0.0
 40
6.912000000000002
  1

 50
270.0
  7
ROMANS
 72
     1
 11
5307.401591054769
 21
1780.654545028432
 31
0.0
100
AcDbText
  0
TEXT
  5
1D44D
330
1F
100
AcDbEntity
  8
0
 62
     2
100
AcDbText
 10
5361.734610031471
 20
1938.031078312513
 30
0.0
 40
9.2
  1

 50
270.0
 41
0.9
  7
ROMANS
 72
     1
 11
5361.734610031471
 21
1938.031078312513
 31
0.0
100
AcDbText
  0
TEXT
  5
1D44E
330
1F
100
AcDbEntity
  8
0
 62
     4
100
AcDbText
 10
5307.650147641531
 20
2052.2234935275
 30
0.0
 40
5.6
  1

 50
270.0
 41
0.9
  7
ROMANS
 72
     1
 11
5307.650147641531
 21
2052.2234935275
 31
0.0
100
AcDbText
  0
MTEXT
  5
1D44F
330
1F
100
AcDbEntity
  8
4
100
AcDbMText
 10
6140.945441566035
 20
2040.131186197337
 30
0.0
 40
9.0
 41
0.0
 46
0.0
 71
     7
 72
     5
  1

 11
4.040909046178904E-13
 21
-1.0
 31
0.0
 73
     1
 44
1.0
  0
TEXT
  5
1D450
330
1F
100
AcDbEntity
  8
0
 62
     4
100
AcDbText
 10
5944.275282308989
 20
1881.184208296679
 30
0.0
 40
5.760000000000001
  1

 50
270.0
  7
ROMANS
 72
     1
 11
5944.275282308989
 21
1881.184208296679
 31
0.0
100
AcDbText
  0
TEXT
  5
1D451
330
1F
100
AcDbEntity
  8
0
 62
     4
100
AcDbText
 10
5926.818166338217
 20
1731.93195380365
 30
0.0
 40
6.912000000000002
  1

 50
270.0
  7
ROMANS
 72
     1
 11
5926.818166338217
 21
1731.93195380365
 31
0.0
100
AcDbText
  0
TEXT
  5
1D452
330
1F
100
AcDbEntity
  8
0
 62
     2
100
AcDbText
 10
5981.151185314919
 20
1889.308487087731
 30
0.0
 40
9.2
  1

 50
270.0
 41
0.9
  7
ROMANS
 72
     1
 11
5981.151185314919
 21
1889.308487087731
 31
0.0
100
AcDbText
  0
TEXT
  5
1D453
330
1F
100
AcDbEntity
  8
0
 62
     4
100
AcDbText
 10
5927.066722924979
 20
2003.500902302718
 30
0.0
 40
5.6
  1

 50
270.0
 41
0.9
  7
ROMANS
 72
     1
 11
5927.066722924979
 21
2003.500902302718
 31
0.0
100
AcDbText
  0
MTEXT
  5
1D454
330
1F
100
AcDbEntity
  8
4
100
AcDbMText
 10
3033.889684301479
 20
3655.542866681886
 30
0.0
 40
9.0
 41
0.0
 46
0.0
 71
     7
 72
     5
  1

 11
4.040909046178904E-13
 21
-1.0
 31
0.0
 73
     1
 44
1.0
  0
TEXT
  5
1D455
330
1F
100
AcDbEntity
  8
0
 62
     4
100
AcDbText
 10
2806.386549080966
 20
3796.910948584897
 30
0.0
 40
5.760000000000001
  1

 50
270.0
  7
ROMANS
 72
     1
 11
2806.386549080966
 21
3796.910948584897
 31
0.0
100
AcDbText
  0
TEXT
  5
1D456
330
1F
100
AcDbEntity
  8
0
 62
     4
100
AcDbText
 10
2788.929433110194
 20
3647.658694091868
 30
0.0
 40
6.912000000000002
  1

 50
270.0
  7
ROMANS
 72
     1
 11
2788.929433110194
 21
3647.658694091868
 31
0.0
100
AcDbText
  0
TEXT
  5
1D457
330
1F
100
AcDbEntity
  8
0
 62
     2
100
AcDbText
 10
2843.262452086897
 20
3805.035227375949
 30
0.0
 40
9.2
  1

 50
270.0
 41
0.9
  7
ROMANS
 72
     1
 11
2843.262452086897
 21
3805.035227375949
 31
0.0
100
AcDbText
  0
TEXT
  5
1D458
330
1F
100
AcDbEntity
  8
0
 62
     4
100
AcDbText
 10
2789.177989696957
 20
3919.227642590936
 30
0.0
 40
5.6
  1

 50
270.0
 41
0.9
  7
ROMANS
 72
     1
 11
2789.177989696957
 21
3919.227642590936
 31
0.0
100
AcDbText
  0
MTEXT
  5
1D459
330
1F
100
AcDbEntity
  8
4
100
AcDbMText
 10
2787.331097263644
 20
4119.932538250554
 30
0.0
 40
9.0
 41
0.0
 46
0.0
 71
     7
 72
     5
  1

 11
4.040909046178904E-13
 21
-1.0
 31
0.0
 73
     1
 44
1.0
  0
MTEXT
  5
1D45A
330
1F
100
AcDbEntity
  8
4
100
AcDbMText
 10
6429.826060951751
 20
-4310.975519008011
 30
0.0
 40
9.0
 41
0.0
 46
0.0
 71
     7
 72
     5
  1

 11
4.040909046178904E-13
 21
-1.0
 31
0.0
 73
     1
 44
1.0
  0
TEXT
  5
1D45B
330
1F
100
AcDbEntity
  8
0
 62
     4
100
AcDbText
 10
6138.956008683948
 20
-4344.19161778184
 30
0.0
 40
7.200000000000001
  1

 50
270.0
  7
ROMANS
 72
     1
 11
6138.956008683948
 21
-4344.19161778184
 31
0.0
100
AcDbText
  0
TEXT
  5
1D45C
330
1F
100
AcDbEntity
  8
0
 62
     4
100
AcDbText
 10
6117.134613720482
 20
-4530.756935898126
 30
0.0
 40
8.640000000000002
  1

 50
270.0
  7
ROMANS
 72
     1
 11
6117.134613720482
 21
-4530.756935898126
 31
0.0
100
AcDbText
  0
TEXT
  5
1D45D
330
1F
100
AcDbEntity
  8
0
 62
     2
100
AcDbText
 10
6185.050887441361
 20
-4334.036269293025
 30
0.0
 40
11.5
  1

 50
270.0
 41
0.9
  7
ROMANS
 72
     1
 11
6185.050887441361
 21
-4334.036269293025
 31
0.0
100
AcDbText
  0
TEXT
  5
1D45E
330
1F
100
AcDbEntity
  8
0
 62
     4
100
AcDbText
 10
6117.445309453936
 20
-4191.295750274291
 30
0.0
 40
7.0
  1

 50
270.0
 41
0.9
  7
ROMANS
 72
     1
 11
6117.445309453936
 21
-4191.295750274291
 31
0.0
100
AcDbText
  0
MTEXT
  5
1D45F
330
1F
100
AcDbEntity
  8
4
100
AcDbMText
 10
5959.000855623201
 20
-3761.45661206731
 30
0.0
 40
9.0
 41
0.0
 46
0.0
 71
     7
 72
     5
  1

 73
     1
 44
1.0
  0
TEXT
  5
1D460
330
1F
100
AcDbEntity
  8
0
 62
     4
100
AcDbText
 10
5817.632773720189
 20
-3988.959747287822
 30
0.0
 40
5.760000000000001
  1

  7
ROMANS
 72
     1
 11
5817.632773720189
 21
-3988.959747287822
 31
0.0
100
AcDbText
  0
TEXT
  5
1D461
330
1F
100
AcDbEntity
  8
0
 62
     4
100
AcDbText
 10
5966.885028213217
 20
-4006.416863258595
 30
0.0
 40
6.912000000000002
  1

  7
ROMANS
 72
     1
 11
5966.885028213217
 21
-4006.416863258595
 31
0.0
100
AcDbText
  0
TEXT
  5
1D462
330
1F
100
AcDbEntity
  8
0
 62
     2
100
AcDbText
 10
5809.508494929136
 20
-3952.083844281892
 30
0.0
 40
9.2
  1

 41
0.9
  7
ROMANS
 72
     1
 11
5809.508494929136
 21
-3952.083844281892
 31
0.0
100
AcDbText
  0
TEXT
  5
1D463
330
1F
100
AcDbEntity
  8
0
 62
     4
100
AcDbText
 10
5695.316079714149
 20
-4006.168306671832
 30
0.0
 40
5.6
  1

 41
0.9
  7
ROMANS
 72
     1
 11
5695.316079714149
 21
-4006.168306671832
 31
0.0
100
AcDbText
  0
MTEXT
  5
1D464
330
1F
100
AcDbEntity
  8
4
100
AcDbMText
 10
5494.611184054532
 20
-4008.015199105145
 30
0.0
 40
9.0
 41
0.0
 46
0.0
 71
     7
 72
     5
  1

 73
     1
 44
1.0
  0
POINT
  5
21A0B
330
1F
100
AcDbEntity
  8
0
 60
     1
100
AcDbPoint
 10
6296.832327607292
 20
-17329.65161048935
 30
0.0
1001
GENIUS_GENODEF_13
1002
{
1000
HIER
1070
     1
1002
}
1002
{
1000
MANEDIT
1070
     0
1002
}
1002
{
1000
NOSEL
1070
     0
1002
}
1002
{
1000
BEHIND
1070
     0
1002
}
1002
{
1000
OTHER
1070
     0
1002
}
1002
{
1000
REACTOR
1002
}
1001
GENIUS_GENOENT_13
1002
{
1000
MYREF
1005
21A0B
1002
}
1002
{
1000
GRP
1005
0
1002
}
1001
GENIUS_GENOBJ-N-FIL_13
1002
{
1000
OWNER
1000
GEN
1002
}
1001
GENIUS_GENOLIS_13
1002
{
1000
ENT
1005
21A03
1002
}
  0
POINT
  5
21A0E
330
1F
100
AcDbEntity
  8
0
 60
     1
100
AcDbPoint
 10
6296.832327607292
 20
-17329.65161048935
 30
0.0
1001
GENIUS_GENOLIS_13
1002
{
1000
ENT
1005
21A0C
1002
}
1001
GENIUS_GENOENT_13
1002
{
1000
MYREF
1005
21A0E
1002
}
1002
{
1000
GRP
1005
0
1002
}
1001
GENIUS_GENOBJ-N-FIL_13
1002
{
1000
OWNER
1000
GEN
1002
}
1001
GENIUS_GENODEF_13
1002
{
1000
HIER
1070
     1
1002
}
1002
{
1000
MANEDIT
1070
     0
1002
}
1002
{
1000
NOSEL
1070
     0
1002
}
1002
{
1000
BEHIND
1070
     0
1002
}
1002
{
1000
OTHER
1070
     0
1002
}
1002
{
1000
REACTOR
1002
}
  0
POINT
  5
21A10
330
1F
100
AcDbEntity
  8
0
 60
     1
100
AcDbPoint
 10
6296.832327607292
 20
-17329.65161048935
 30
0.0
1001
GENIUS_GENOENT_13
1002
{
1000
MYREF
1005
21A10
1002
}
1002
{
1000
GRP
1005
0
1002
}
1001
GENIUS_GENOBJ-N-FIL_13
1002
{
1000
OWNER
1000
GEN
1002
}
1001
GENIUS_GENODEF_13
1002
{
1000
HIER
1070
     1
1002
}
1002
{
1000
MANEDIT
1070
     0
1002
}
1002
{
1000
NOSEL
1070
     0
1002
}
1002
{
1000
BEHIND
1070
     0
1002
}
1002
{
1000
OTHER
1070
     0
1002
}
1002
{
1000
REACTOR
1002
}
1001
GENIUS_GENOLIS_13
1002
{
1000
ENT
1005
21A08
1002
}
  0
POINT
  5
21A12
330
1F
100
AcDbEntity
  8
0
 60
     1
100
AcDbPoint
 10
6296.832327607292
 20
-17329.65161048935
 30
0.0
1001
GENIUS_GENOLIS_13
1002
{
1000
ENT
1005
21A0A
1002
}
1001
GENIUS_GENOENT_13
1002
{
1000
MYREF
1005
21A12
1002
}
1002
{
1000
GRP
1005
0
1002
}
1001
GENIUS_GENOBJ-N-FIL_13
1002
{
1000
OWNER
1000
GEN
1002
}
1001
GENIUS_GENODEF_13
1002
{
1000
HIER
1070
     1
1002
}
1002
{
1000
MANEDIT
1070
     0
1002
}
1002
{
1000
NOSEL
1070
     0
1002
}
1002
{
1000
BEHIND
1070
     0
1002
}
1002
{
1000
OTHER
1070
     0
1002
}
1002
{
1000
REACTOR
1002
}
  0
POINT
  5
21A1D
330
1F
100
AcDbEntity
  8
0
 60
     1
100
AcDbPoint
 10
6296.832327592519
 20
18146.68161251309
 30
0.0
1001
GENIUS_GENODEF_13
1002
{
1000
HIER
1070
     1
1002
}
1002
{
1000
MANEDIT
1070
     0
1002
}
1002
{
1000
NOSEL
1070
     0
1002
}
1002
{
1000
BEHIND
1070
     0
1002
}
1002
{
1000
OTHER
1070
     0
1002
}
1002
{
1000
REACTOR
1002
}
1001
GENIUS_GENOENT_13
1002
{
1000
MYREF
1005
21A1D
1002
}
1002
{
1000
GRP
1005
0
1002
}
1001
GENIUS_GENOBJ-N-FIL_13
1002
{
1000
OWNER
1000
GEN
1002
}
1001
GENIUS_GENOLIS_13
1002
{
1000
ENT
1005
21A14
1002
}
  0
POINT
  5
21A1E
330
1F
100
AcDbEntity
  8
0
 60
     1
100
AcDbPoint
 10
6296.832327592519
 20
18146.68161251309
 30
0.0
1001
GENIUS_GENOLIS_13
1002
{
1000
ENT
1005
21A1B
1002
}
1001
GENIUS_GENOENT_13
1002
{
1000
MYREF
1005
21A1E
1002
}
1002
{
1000
GRP
1005
0
1002
}
1001
GENIUS_GENOBJ-N-FIL_13
1002
{
1000
OWNER
1000
GEN
1002
}
1001
GENIUS_GENODEF_13
1002
{
1000
HIER
1070
     1
1002
}
1002
{
1000
MANEDIT
1070
     0
1002
}
1002
{
1000
NOSEL
1070
     0
1002
}
1002
{
1000
BEHIND
1070
     0
1002
}
1002
{
1000
OTHER
1070
     0
1002
}
1002
{
1000
REACTOR
1002
}
  0
POINT
  5
21A1F
330
1F
100
AcDbEntity
  8
0
 60
     1
100
AcDbPoint
 10
6296.832327592519
 20
18146.68161251309
 30
0.0
1001
GENIUS_GENOENT_13
1002
{
1000
MYREF
1005
21A1F
1002
}
1002
{
1000
GRP
1005
0
1002
}
1001
GENIUS_GENOBJ-N-FIL_13
1002
{
1000
OWNER
1000
GEN
1002
}
1001
GENIUS_GENODEF_13
1002
{
1000
HIER
1070
     1
1002
}
1002
{
1000
MANEDIT
1070
     0
1002
}
1002
{
1000
NOSEL
1070
     0
1002
}
1002
{
1000
BEHIND
1070
     0
1002
}
1002
{
1000
OTHER
1070
     0
1002
}
1002
{
1000
REACTOR
1002
}
1001
GENIUS_GENOLIS_13
1002
{
1000
ENT
1005
21A19
1002
}
  0
POINT
  5
21A20
330
1F
100
AcDbEntity
  8
0
 60
     1
100
AcDbPoint
 10
6296.832327592519
 20
18146.68161251309
 30
0.0
1001
GENIUS_GENOLIS_13
1002
{
1000
ENT
1005
21A1C
1002
}
1001
GENIUS_GENOENT_13
1002
{
1000
MYREF
1005
21A20
1002
}
1002
{
1000
GRP
1005
0
1002
}
1001
GENIUS_GENOBJ-N-FIL_13
1002
{
1000
OWNER
1000
GEN
1002
}
1001
GENIUS_GENODEF_13
1002
{
1000
HIER
1070
     1
1002
}
1002
{
1000
MANEDIT
1070
     0
1002
}
1002
{
1000
NOSEL
1070
     0
1002
}
1002
{
1000
BEHIND
1070
     0
1002
}
1002
{
1000
OTHER
1070
     0
1002
}
1002
{
1000
REACTOR
1002
}
  0
LINE
  5
2773F
330
1F
100
AcDbEntity
  8
0
  6
CENTER
 62
     2
100
AcDbLine
 10
110.7686357692544
 20
444.3515043360715
 30
0.0
 11
110.7686357691871
 21
610.1433724454155
 31
0.0
  0
CIRCLE
  5
27740
330
1F
100
AcDbEntity
  8
0
100
AcDbCircle
 10
110.7686357692207
 20
526.9877732649929
 30
0.0
 40
55.0
  0
CIRCLE
  5
27741
330
1F
100
AcDbEntity
  8
0
100
AcDbCircle
 10
110.7686357692207
 20
526.9877732649929
 30
0.0
 40
53.0
  0
CIRCLE
  5
27742
330
1F
100
AcDbEntity
  8
0
100
AcDbCircle
 10
110.7686357692207
 20
526.9877732649929
 30
0.0
 40
44.5
  0
CIRCLE
  5
27743
330
1F
100
AcDbEntity
  8
0
100
AcDbCircle
 10
110.7686357692207
 20
526.9877732649929
 30
0.0
 40
42.5
  0
CIRCLE
  5
27744
330
1F
100
AcDbEntity
  8
0
100
AcDbCircle
 10
110.7686357692207
 20
526.9877732649929
 30
0.0
 40
34.0
  0
CIRCLE
  5
27745
330
1F
100
AcDbEntity
  8
0
100
AcDbCircle
 10
110.7686357692207
 20
526.9877732649929
 30
0.0
 40
32.0
  0
CIRCLE
  5
27746
330
1F
100
AcDbEntity
  8
0
100
AcDbCircle
 10
110.7686357692207
 20
526.9877732649929
 30
0.0
 40
23.5
  0
CIRCLE
  5
27747
330
1F
100
AcDbEntity
  8
0
100
AcDbCircle
 10
110.7686357692207
 20
526.9877732649929
 30
0.0
 40
21.5
  0
CIRCLE
  5
27748
330
1F
100
AcDbEntity
  8
0
100
AcDbCircle
 10
110.7686357692207
 20
526.9877732649929
 30
0.0
 40
13.0
  0
CIRCLE
  5
27749
330
1F
100
AcDbEntity
  8
0
100
AcDbCircle
 10
110.7686357692207
 20
526.9877732649929
 30
0.0
 40
11.0
  0
ARC
  5
2774A
330
1F
100
AcDbEntity
  8
Visibile (ISO)
100
AcDbCircle
 10
45.76863576922074
 20
526.9877732649668
 30
0.0
 40
2.5
100
AcDbArc
 50
38.50251726678552
 51
270.0000000001302
  0
ARC
  5
2774B
330
1F
100
AcDbEntity
  8
Visibile (ISO)
100
AcDbCircle
 10
45.76863576922074
 20
526.9877732649668
 30
0.0
 40
4.5
100
AcDbArc
 50
44.07920984791869
 51
270.0000000001302
  0
ARC
  5
2774C
330
1F
100
AcDbEntity
  8
0
100
AcDbCircle
 10
54.02999159014666
 20
534.9877732649697
 30
0.0
 40
7.0
100
AcDbArc
 50
224.0792098479187
 51
270.000000000026
1001
GENIUS_GENODEF_13
1002
{
1000
HIER
1070
     0
1002
}
1002
{
1000
MANEDIT
1070
     0
1002
}
1002
{
1000
NOSEL
1070
     0
1002
}
1002
{
1000
BEHIND
1070
     0
1002
}
1002
{
1000
OTHER
1070
     0
1002
}
1002
{
1000
REACTOR
1002
}
1001
GENIUS_GENOBJ-N-FIL_13
1002
{
1000
OWNER
1000
GEN
1002
}
  0
ARC
  5
2774D
330
1F
100
AcDbEntity
  8
0
100
AcDbCircle
 10
54.02999159014666
 20
534.9877732649697
 30
0.0
 40
9.0
100
AcDbArc
 50
224.0792098479187
 51
270.000000000026
1001
GENIUS_GENODEF_13
1002
{
1000
HIER
1070
     0
1002
}
1002
{
1000
MANEDIT
1070
     0
1002
}
1002
{
1000
NOSEL
1070
     0
1002
}
1002
{
1000
BEHIND
1070
     0
1002
}
1002
{
1000
OTHER
1070
     0
1002
}
1002
{
1000
REACTOR
1002
}
1001
GENIUS_GENOBJ-N-FIL_13
1002
{
1000
OWNER
1000
GEN
1002
}
  0
LINE
  5
2774E
330
1F
100
AcDbEntity
  8
Visibile (ISO)
100
AcDbLine
 10
54.0299915901503
 20
525.98777326497
 30
0.0
 11
102.7686357692257
 21
525.9877732649898
 31
0.0
  0
LINE
  5
2774F
330
1F
100
AcDbEntity
  8
Visibile (ISO)
100
AcDbLine
 10
54.02999159014985
 20
527.98777326497
 30
0.0
 11
102.7686357692248
 21
527.9877732649898
 31
0.0
  0
LINE
  5
27750
330
1F
100
AcDbEntity
  8
0
100
AcDbLine
 10
45.76863576923165
 20
522.4877732649668
 30
0.0
 11
48.76863576923165
 21
522.4877732649679
 31
0.0
  0
LINE
  5
27751
330
1F
100
AcDbEntity
  8
0
100
AcDbLine
 10
45.76863576922165
 20
524.4877732649668
 30
0.0
 11
48.76863576922165
 21
524.4877732649679
 31
0.0
  0
LINE
  5
27752
330
1F
100
AcDbEntity
  8
0
100
AcDbLine
 10
48.76863576922165
 20
524.4877732649679
 30
0.0
 11
48.76863576922256
 21
522.4877732649679
 31
0.0
  0
ARC
  5
27753
330
1F
100
AcDbEntity
  8
Visibile (ISO)
100
AcDbCircle
 10
110.7686357692517
 20
461.9877732649929
 30
0.0
 40
2.5
100
AcDbArc
 50
128.5025172667758
 51
0.0000000001367893
  0
ARC
  5
27754
330
1F
100
AcDbEntity
  8
Visibile (ISO)
100
AcDbCircle
 10
110.7686357692517
 20
461.9877732649929
 30
0.0
 40
4.5
100
AcDbArc
 50
134.0792098479025
 51
0.0000000001367893
  0
ARC
  5
27755
330
1F
100
AcDbEntity
  8
0
100
AcDbCircle
 10
102.7686357692485
 20
470.249129085919
 30
0.0
 40
7.0
100
AcDbArc
 50
314.0792098479025
 51
0.0000000000260551
1001
GENIUS_GENODEF_13
1002
{
1000
HIER
1070
     0
1002
}
1002
{
1000
MANEDIT
1070
     0
1002
}
1002
{
1000
NOSEL
1070
     0
1002
}
1002
{
1000
BEHIND
1070
     0
1002
}
1002
{
1000
OTHER
1070
     0
1002
}
1002
{
1000
REACTOR
1002
}
1001
GENIUS_GENOBJ-N-FIL_13
1002
{
1000
OWNER
1000
GEN
1002
}
  0
ARC
  5
27756
330
1F
100
AcDbEntity
  8
0
100
AcDbCircle
 10
102.7686357692485
 20
470.249129085919
 30
0.0
 40
9.0
100
AcDbArc
 50
314.0792098479025
 51
0.0000000000260551
1001
GENIUS_GENODEF_13
1002
{
1000
HIER
1070
     0
1002
}
1002
{
1000
MANEDIT
1070
     0
1002
}
1002
{
1000
NOSEL
1070
     0
1002
}
1002
{
1000
BEHIND
1070
     0
1002
}
1002
{
1000
OTHER
1070
     0
1002
}
1002
{
1000
REACTOR
1002
}
1001
GENIUS_GENOBJ-N-FIL_13
1002
{
1000
OWNER
1000
GEN
1002
}
  0
LINE
  5
27757
330
1F
100
AcDbEntity
  8
Visibile (ISO)
100
AcDbLine
 10
111.768635769248
 20
470.2491290859227
 30
0.0
 11
111.7686357692285
 21
518.9877732649934
 31
0.0
  0
LINE
  5
27758
330
1F
100
AcDbEntity
  8
Visibile (ISO)
100
AcDbLine
 10
109.768635769248
 20
470.2491290859219
 30
0.0
 11
109.7686357692285
 21
518.9877732649925
 31
0.0
  0
LINE
  5
2775B
330
1F
100
AcDbEntity
  8
0
100
AcDbLine
 10
115.2686357692517
 20
461.9877732650037
 30
0.0
 11
115.2686357692503
 21
464.9877732650037
 31
0.0
  0
LINE
  5
2775C
330
1F
100
AcDbEntity
  8
0
100
AcDbLine
 10
113.2686357692517
 20
461.9877732649939
 30
0.0
 11
113.2686357692503
 21
464.9877732649939
 31
0.0
  0
LINE
  5
2775D
330
1F
100
AcDbEntity
  8
0
100
AcDbLine
 10
113.2686357692503
 20
464.9877732649939
 30
0.0
 11
115.2686357692503
 21
464.9877732649946
 31
0.0
  0
ARC
  5
2775E
330
1F
100
AcDbEntity
  8
Visibile (ISO)
100
AcDbCircle
 10
175.7686357692207
 20
526.9877732650191
 30
0.0
 40
2.5
100
AcDbArc
 50
218.5025172667855
 51
90.00000000013027
  0
ARC
  5
2775F
330
1F
100
AcDbEntity
  8
Visibile (ISO)
100
AcDbCircle
 10
175.7686357692207
 20
526.9877732650191
 30
0.0
 40
4.5
100
AcDbArc
 50
224.0792098479187
 51
90.00000000013027
  0
ARC
  5
27760
330
1F
100
AcDbEntity
  8
0
100
AcDbCircle
 10
167.5072799482948
 20
518.9877732650159
 30
0.0
 40
7.0
100
AcDbArc
 50
44.07920984791869
 51
90.00000000002606
1001
GENIUS_GENODEF_13
1002
{
1000
HIER
1070
     0
1002
}
1002
{
1000
MANEDIT
1070
     0
1002
}
1002
{
1000
NOSEL
1070
     0
1002
}
1002
{
1000
BEHIND
1070
     0
1002
}
1002
{
1000
OTHER
1070
     0
1002
}
1002
{
1000
REACTOR
1002
}
1001
GENIUS_GENOBJ-N-FIL_13
1002
{
1000
OWNER
1000
GEN
1002
}
  0
ARC
  5
27761
330
1F
100
AcDbEntity
  8
0
100
AcDbCircle
 10
167.5072799482948
 20
518.9877732650159
 30
0.0
 40
9.0
100
AcDbArc
 50
44.07920984791869
 51
90.00000000002606
1001
GENIUS_GENODEF_13
1002
{
1000
HIER
1070
     0
1002
}
1002
{
1000
MANEDIT
1070
     0
1002
}
1002
{
1000
NOSEL
1070
     0
1002
}
1002
{
1000
BEHIND
1070
     0
1002
}
1002
{
1000
OTHER
1070
     0
1002
}
1002
{
1000
REACTOR
1002
}
1001
GENIUS_GENOBJ-N-FIL_13
1002
{
1000
OWNER
1000
GEN
1002
}
  0
LINE
  5
27762
330
1F
100
AcDbEntity
  8
Visibile (ISO)
100
AcDbLine
 10
167.5072799482912
 20
527.9877732650157
 30
0.0
 11
118.7686357692157
 21
527.9877732649959
 31
0.0
  0
LINE
  5
27763
330
1F
100
AcDbEntity
  8
Visibile (ISO)
100
AcDbLine
 10
167.5072799482916
 20
525.9877732650157
 30
0.0
 11
118.7686357692166
 21
525.9877732649961
 31
0.0
  0
LINE
  5
27764
330
1F
100
AcDbEntity
  8
0
100
AcDbLine
 10
175.7686357692098
 20
531.4877732650191
 30
0.0
 11
172.7686357692098
 21
531.487773265018
 31
0.0
  0
LINE
  5
27765
330
1F
100
AcDbEntity
  8
0
100
AcDbLine
 10
175.7686357692198
 20
529.4877732650191
 30
0.0
 11
172.7686357692198
 21
529.4877732650177
 31
0.0
  0
LINE
  5
27766
330
1F
100
AcDbEntity
  8
0
100
AcDbLine
 10
172.7686357692198
 20
529.4877732650177
 30
0.0
 11
172.7686357692189
 21
531.487773265018
 31
0.0
  0
ARC
  5
27767
330
1F
100
AcDbEntity
  8
Visibile (ISO)
100
AcDbCircle
 10
110.7686357691898
 20
591.9877732649929
 30
0.0
 40
2.5
100
AcDbArc
 50
308.5025172667758
 51
180.0000000001368
  0
ARC
  5
27768
330
1F
100
AcDbEntity
  8
Visibile (ISO)
100
AcDbCircle
 10
110.7686357691898
 20
591.9877732649929
 30
0.0
 40
4.5
100
AcDbArc
 50
314.0792098479025
 51
180.0000000001368
  0
ARC
  5
27769
330
1F
100
AcDbEntity
  8
0
100
AcDbCircle
 10
118.768635769193
 20
583.7264174440668
 30
0.0
 40
7.0
100
AcDbArc
 50
134.0792098479025
 51
180.0000000000261
1001
GENIUS_GENODEF_13
1002
{
1000
HIER
1070
     0
1002
}
1002
{
1000
MANEDIT
1070
     0
1002
}
1002
{
1000
NOSEL
1070
     0
1002
}
1002
{
1000
BEHIND
1070
     0
1002
}
1002
{
1000
OTHER
1070
     0
1002
}
1002
{
1000
REACTOR
1002
}
1001
GENIUS_GENOBJ-N-FIL_13
1002
{
1000
OWNER
1000
GEN
1002
}
  0
ARC
  5
2776A
330
1F
100
AcDbEntity
  8
0
100
AcDbCircle
 10
118.768635769193
 20
583.7264174440668
 30
0.0
 40
9.0
100
AcDbArc
 50
134.0792098479025
 51
180.0000000000261
1001
GENIUS_GENODEF_13
1002
{
1000
HIER
1070
     0
1002
}
1002
{
1000
MANEDIT
1070
     0
1002
}
1002
{
1000
NOSEL
1070
     0
1002
}
1002
{
1000
BEHIND
1070
     0
1002
}
1002
{
1000
OTHER
1070
     0
1002
}
1002
{
1000
REACTOR
1002
}
1001
GENIUS_GENOBJ-N-FIL_13
1002
{
1000
OWNER
1000
GEN
1002
}
  0
LINE
  5
2776B
330
1F
100
AcDbEntity
  8
Visibile (ISO)
100
AcDbLine
 10
109.7686357691935
 20
583.7264174440631
 30
0.0
 11
109.768635769213
 21
534.9877732649925
 31
0.0
  0
LINE
  5
2776C
330
1F
100
AcDbEntity
  8
Visibile (ISO)
100
AcDbLine
 10
111.7686357691935
 20
583.7264174440638
 30
0.0
 11
111.768635769213
 21
534.9877732649932
 31
0.0
  0
LINE
  5
2776F
330
1F
100
AcDbEntity
  8
0
100
AcDbLine
 10
106.2686357691898
 20
591.987773264982
 30
0.0
 11
106.2686357691912
 21
588.987773264982
 31
0.0
  0
LINE
  5
27770
330
1F
100
AcDbEntity
  8
0
100
AcDbLine
 10
108.2686357691898
 20
591.9877732649918
 30
0.0
 11
108.2686357691912
 21
588.9877732649918
 31
0.0
  0
LINE
  5
27771
330
1F
100
AcDbEntity
  8
0
100
AcDbLine
 10
108.2686357691912
 20
588.9877732649918
 30
0.0
 11
106.2686357691912
 21
588.9877732649911
 31
0.0
  0
CIRCLE
  5
277D0
330
1F
100
AcDbEntity
  8
0
  6
CENTER
 62
     2
100
AcDbCircle
 10
110.7686357692207
 20
526.9877732649929
 30
0.0
 40
65.0
  0
DIMENSION
  5
277DA
330
1F
100
AcDbEntity
  8
AM_5
100
AcDbDimension
280
     0
  2
*D8
 10
54.50348882130638
 20
494.4419096425675
 30
0.0
 11
207.9121938909452
 21
570.6602001713029
 31
0.0
 70
   163
 71
     5
 42
130.0000000000003
 73
     0
 74
     0
 75
     0
 51
359.9999999999769
  3
AM_ISO$3
100
AcDbDiametricDimension
 15
167.0337827171374
 25
559.5336368874174
 35
0.0
 40
0.0
1001
ACAD_DSTYLE_DIMRADIAL_EXTENSION
1070
   387
1070
     1
1070
   388
1040
0.0
1070
   390
1040
0.0
1001
ACAD_DSTYLE_DIMINSPECT
1070
   396
1000
100%
1070
   395
1000

1070
   394
1070
    33
1070
   393
1070
     0
1001
ACAD
1000
DSTYLE
1002
{
1070
   271
1070
     0
1002
}
  0
DIMENSION
  5
277DE
330
1F
100
AcDbEntity
  8
AM_5
100
AcDbDimension
280
     0
  2
*D12
 10
165.7686357692207
 20
418.7341045018338
 30
0.0
 11
110.8881276620079
 21
418.7341045018338
 31
0.0
 70
   160
  1
%%c<>
 71
     5
 42
110.0
 73
     0
 74
     0
 75
     0
 51
359.9999999999769
  3
AM_ISO$0
100
AcDbAlignedDimension
 13
55.76863576922074
 23
526.9877732649707
 33
0.0
 14
165.7686357692207
 24
526.9877732650152
 34
0.0
 50
0.0000000000232053
100
AcDbRotatedDimension
1001
ACAD_DSTYLE_DIMINSPECT
1070
   396
1000
100%
1070
   395
1000

1070
   394
1070
    33
1070
   393
1070
     0
1001
ACAD
1000
DSTYLE
1002
{
1070
   271
1070
     0
1002
}
  0
DIMENSION
  5
28242
330
1F
100
AcDbEntity
  8
AM_5
100
AcDbDimension
280
     0
  2
*D30
 10
110.7686357691871
 20
610.1433724454155
 30
0.0
 11
36.12647412733259
 21
601.6299349068206
 31
0.0
 70
    34
 71
     5
 42
1.570796326794897
 73
     0
 74
     0
 75
     0
 51
359.9999999999769
  3
AM_ISO$2
100
AcDb2LineAngularDimension
 13
26.02270398448013
 23
526.9877732649586
 33
0.0
 14
195.563228750844
 24
526.9877732650273
 34
0.0
 15
110.7686357692544
 25
444.3515043360715
 35
0.0
 16
63.48865710980743
 26
608.8790984837924
 36
0.0
1001
ACAD
1000
DSTYLE
1002
{
1070
   271
1070
     1
1002
}
1001
ACAD_DSTYLE_DIMINSPECT
1070
   396
1000
100%
1070
   395
1000

1070
   394
1070
    33
1070
   393
1070
     0
  0
LINE
  5
28FDB
330
1F
100
AcDbEntity
  8
0
100
AcDbLine
 10
109.768635769213
 20
534.9877732649925
 30
0.0
 11
111.768635769213
 21
534.9877732649932
 31
0.0
  0
LINE
  5
28FDC
330
1F
100
AcDbEntity
  8
0
100
AcDbLine
 10
102.7686357692248
 20
527.9877732649898
 30
0.0
 11
102.7686357692257
 21
525.9877732649898
 31
0.0
  0
LINE
  5
28FDD
330
1F
100
AcDbEntity
  8
0
100
AcDbLine
 10
109.7686357692285
 20
518.9877732649925
 30
0.0
 11
111.7686357692285
 21
518.9877732649934
 31
0.0
  0
LINE
  5
28FDE
330
1F
100
AcDbEntity
  8
0
100
AcDbLine
 10
118.7686357692166
 20
525.9877732649961
 30
0.0
 11
118.7686357692157
 21
527.9877732649959
 31
0.0
  0
ENDSEC
  0
SECTION
  2
OBJECTS
  0
DICTIONARY
  5
C
330
0
100
AcDbDictionary
281
     1
  3
ACAD_ASSOCNETWORK
350
26FAD
  3
ACAD_BACKGROUND
350
25858
  3
ACAD_CIP_PREVIOUS_PRODUCT_INFO
350
24E11
  3
ACAD_COLOR
350
E53D
  3
ACAD_DETAILVIEWSTYLE
350
2845C
  3
ACAD_GROUP
350
D
  3
ACAD_IMAGE_DICT
350
218BD
  3
ACAD_IMAGE_VARS
350
218BF
  3
ACAD_LAYOUT
350
1A
  3
ACAD_MATERIAL
350
E53C
  3
ACAD_MLEADERSTYLE
350
2451C
  3
ACAD_MLINESTYLE
350
17
  3
ACAD_PLOTSETTINGS
350
19
  3
ACAD_PLOTSTYLENAME
350
E
  3
ACAD_SCALELIST
350
244FA
  3
ACAD_SECTIONVIEWSTYLE
350
2845A
  3
ACAD_TABLESTYLE
350
E57A
  3
ACAD_VISUALSTYLE
350
241C1
  3
ACDB_RECOMPOSE_DATA
350
29041
  3
AcDbVariableDictionary
350
30
  3
ACGREF_MASTER
350
2857D
  3
ACGREFACAD_MASTER
350
28580
  3
AcmDictionary
350
43
  3
ACME_COMMAND_HISTORY
350
28576
  3
ACME_SCOPE_NAME
350
28575
  3
ACMESTATEMGR
350
28579
  3
AcmeSysVarManager
350
28577
  3
AcmSystemVariableManager
350
28585
  3
AMG
350
3F
  3
AMGSNAPSETTINGS
350
5B
  3
AMI_MASTER
350
28583
  3
APPDATA
350
28D14
  3
AUTOCAD_ASSEMBLIES_PROJECT
350
2858E
  3
Designer_Assemblies_SysVars
350
28588
  3
GREFAM_MODULE
350
28584
  3
StructToggleButtonState
350
28820
  0
DICTIONARY
  5
2427B
330
8
100
AcDbDictionary
280
     1
281
     1
  0
SUN
  5
28D15
330
241BC
100
AcDbSun
 90
        1
290
     0
 63
     7
421
 16777215
 40
1.0
291
     1
 91
  2455826
 92
 54000000
292
     0
 70
     2
 71
   256
280
     1
  0
DICTIONARY
  5
20B7A
330
2
100
AcDbDictionary
280
     1
281
     1
  3
ACAD_LAYERSTATES
360
25449
  3
AMLAYER_GROUPCOLORS
360
20B7B
  0
DICTIONARY
  5
245A6
330
10
100
AcDbDictionary
280
     1
281
     1
  3
ADSK_XREC_LAYER_RECONCILED
360
245A7
  0
DICTIONARY
  5
245AE
330
ED3
100
AcDbDictionary
280
     1
281
     1
  3
ADSK_XREC_LAYER_RECONCILED
360
245AF
  0
DICTIONARY
  5
245B2
330
F8C
100
AcDbDictionary
280
     1
281
     1
  3
ADSK_XREC_LAYER_RECONCILED
360
245B3
  0
DICTIONARY
  5
245F4
330
1927E
100
AcDbDictionary
280
     1
281
     1
  3
ADSK_XREC_LAYER_RECONCILED
360
245F5
  0
DICTIONARY
  5
55
330
1F
100
AcDbDictionary
280
     1
281
     1
  3
ACAD_ASSOCNETWORK
360
26FAB
  3
ACAD_SORTENTS
360
E623
  0
DICTIONARY
  5
26FAD
102
{ACAD_REACTORS
330
C
102
}
330
C
100
AcDbDictionary
281
     1
  3
ACAD_ASSOCNETWORK
350
26FAE
  0
DICTIONARY
  5
25858
102
{ACAD_REACTORS
330
C
102
}
330
C
100
AcDbDictionary
281
     1
  0
XRECORD
  5
24E11
102
{ACAD_REACTORS
330
C
102
}
330
C
100
AcDbXrecord
280
     1
300
AMECH_PP
300
2013
300
85962PDSP_2013_0F
  0
DICTIONARY
  5
E53D
102
{ACAD_REACTORS
330
C
102
}
330
C
100
AcDbDictionary
281
     1
  0
DICTIONARY
  5
2845C
102
{ACAD_REACTORS
330
C
102
}
330
C
100
AcDbDictionary
281
     1
  3
Metric50
350
2845D
  0
DICTIONARY
  5
D
102
{ACAD_REACTORS
330
C
102
}
330
C
100
AcDbDictionary
281
     1
  0
DICTIONARY
  5
218BD
102
{ACAD_REACTORS
330
C
102
}
330
C
100
AcDbDictionary
281
     1
  3
Logo DYNAIR ufficiale_nero_1
350
2864A
  3
Logo ELICENT ufficiale_nero_1
350
2864B
  0
RASTERVARIABLES
  5
218BF
102
{ACAD_REACTORS
330
C
102
}
330
C
100
AcDbRasterVariables
 90
        0
 70
     0
 71
     1
 72
     1
  0
DICTIONARY
  5
1A
102
{ACAD_REACTORS
330
C
102
}
330
C
100
AcDbDictionary
281
     1
  3
Layout1
350
1E
  3
Layout2
350
26
  3
Model
350
22
  0
DICTIONARY
  5
E53C
102
{ACAD_REACTORS
330
C
102
}
330
C
100
AcDbDictionary
281
     1
  3
ByBlock
350
241BF
  3
ByLayer
350
241BE
  3
Global
350
241C0
  0
DICTIONARY
  5
2451C
102
{ACAD_REACTORS
330
C
102
}
330
C
100
AcDbDictionary
281
     1
  3
Standard
350
2451D
  0
DICTIONARY
  5
17
102
{ACAD_REACTORS
330
C
102
}
330
C
100
AcDbDictionary
281
     1
  3
Standard
350
18
  0
DICTIONARY
  5
19
102
{ACAD_REACTORS
330
C
102
}
330
C
100
AcDbDictionary
281
     1
  0
ACDBDICTIONARYWDFLT
  5
E
102
{ACAD_REACTORS
330
C
102
}
330
C
100
AcDbDictionary
281
     1
  3
Normal
350
F
100
AcDbDictionaryWithDefault
340
F
  0
DICTIONARY
  5
244FA
102
{ACAD_REACTORS
330
C
102
}
330
C
100
AcDbDictionary
281
     1
  3
A0
350
244FB
  3
A1
350
244FC
  3
A2
350
244FD
  3
A3
350
244FE
  3
A4
350
244FF
  3
A5
350
24500
  3
A6
350
24501
  3
A7
350
24502
  3
A8
350
24503
  3
A9
350
24504
  3
B0
350
24505
  3
B1
350
24506
  3
B2
350
24507
  3
B3
350
24508
  3
B4
350
24509
  3
B5
350
2450A
  3
B6
350
2450B
  3
B7
350
2450C
  3
B8
350
2450D
  3
B9
350
2450E
  3
C0
350
2450F
  3
C1
350
24510
  3
C2
350
24511
  3
C3
350
24512
  3
C4
350
24513
  3
C5
350
24514
  3
C6
350
24515
  3
C7
350
24516
  3
C8
350
24517
  3
C9
350
24518
  3
D0
350
24519
  3
D1
350
2451A
  3
D2
350
2451B
  0
DICTIONARY
  5
2845A
102
{ACAD_REACTORS
330
C
102
}
330
C
100
AcDbDictionary
281
     1
  3
Metric50
350
2845B
  0
DICTIONARY
  5
E57A
102
{ACAD_REACTORS
330
C
102
}
330
C
100
AcDbDictionary
281
     1
  3
Standard
350
E57B
  0
DICTIONARY
  5
241C1
102
{ACAD_REACTORS
330
C
102
}
330
C
100
AcDbDictionary
281
     1
  3
2dWireframe
350
241C7
  3
3D Hidden
350
241C9
  3
3dWireframe
350
241C8
  3
Basic
350
241C6
  3
Brighten
350
241CD
  3
ColorChange
350
241D1
  3
Conceptual
350
241CA
  3
Dim
350
241CC
  3
EdgeColorOff
350
24E01
  3
Facepattern
350
241D0
  3
Flat
350
241C2
  3
FlatWithEdges
350
241C3
  3
Gouraud
350
241C4
  3
GouraudWithEdges
350
241C5
  3
Hidden
350
24DF9
  3
JitterOff
350
24DFF
  3
Linepattern
350
241CF
  3
OverhangOff
350
24E00
  3
Realistic
350
241CB
  3
Shaded
350
24DFE
  3
Shaded with edges
350
24DFD
  3
Shades of Gray
350
24DFA
  3
Sketchy
350
24DFB
  3
Thicken
350
241CE
  3
Wireframe
350
24DF8
  3
X-Ray
350
24DFC
  0
XRECORD
  5
29041
102
{ACAD_REACTORS
330
C
102
}
330
C
100
AcDbXrecord
280
     1
 90
        1
330
E57B
  0
DICTIONARY
  5
30
102
{ACAD_REACTORS
330
C
102
}
330
C
100
AcDbDictionary
281
     1
  3
CANNOSCALE
350
24DD1
  3
CMLEADERSTYLE
350
24DCF
  3
CTABLESTYLE
350
E5ED
  3
CVIEWDETAILSTYLE
350
284E3
  3
CVIEWSECTIONSTYLE
350
284E4
  3
INDEXCTL
350
31
  3
LAYEREVAL
350
2613C
  3
LAYERNOTIFY
350
2613D
  3
LIGHTINGUNITS
350
24DD2
  3
MSLTSCALE
350
24DD0
  3
SOLIDHIST
350
284E5
  3
XCLIPFRAME
350
28D1D
  0
ACAD_PROXY_OBJECT
  5
2857D
102
{ACAD_REACTORS
330
C
102
}
330
C
100
AcDbProxyObject
 90
      499
 91
      533
 71
    31
 97
      105
 70
     0
161
                34
310
0C000042C0
  0
ACAD_PROXY_OBJECT
  5
28580
102
{ACAD_REACTORS
330
C
102
}
330
C
100
AcDbProxyObject
 90
      499
 91
      539
 71
    31
 97
      105
 70
     0
161
               114
310
04000041C000000000000000000000
  0
DICTIONARY
  5
43
102
{ACAD_REACTORS
330
C
102
}
330
C
100
AcDbDictionary
281
     1
  3
AcmBOMDATA
350
28597
  3
AcmStdDictionary
350
307C
  3
AMDTSECTSYM_ARROWCOLOR
350
E5D6
  0
ACAD_PROXY_OBJECT
  5
28576
102
{ACAD_REACTORS
330
C
102
}
330
C
100
AcDbProxyObject
 90
      499
 91
      505
 71
    31
 97
      105
 70
     0
162
              6178
311
4154C010C010401300114010455004E0044004F004115401380110013C0107520045004600450044004900540041134013C0158011401044D004F0056004500421100148013C0140011C0114013C013401044D004F0056004500421100148013C0140011C0114013C01340105450052004100530045004115401380110013C
311
010455004E0044004F00419100110011401100124015001184D005300470020002D00200043006F006D006D0061006E0064002000430041004E00430045004C004C00450044002E004115401380110013C010455004E0044004F00419100110011401100124015001184D005300470020002D00200043006F006D006D00610
311
06E0064002000430041004E00430045004C004C00450044002E004115401380110013C010455004E0044004F00419100110011401100124015001184D005300470020002D00200043006F006D006D0061006E0064002000430041004E00430045004C004C00450044002E004115401380110013C010455004E0044004F0041
311
9100110011401100124015001184D005300470020002D00200043006F006D006D0061006E0064002000430041004E00430045004C004C00450044002E004151401480104014C011401044C0049004E00450046134014C011C008000B40080010C01BC01B401B4018401B801900080010C01040138010C01140130013001140
311
11000B801044D004F00560045004151401480104014C011401045A004F004F004D0041544014C01040158011401314D005300470020002D0020005000500041003A002000200020006400650073006B0074006F0070002E006100720078002000460069006C006500560065007200730069006F006E003A002000310037002
311
E0030002E00340038002E0030002E003000411400130013C0150010543004C004F00530045004C534014C011C008000B4008001400140010400E80080008000800190019401CC01AC01D001BC01C000B8018401C801E00080011801A401B001940158019401C801CC01A401BC01B800E8008000C400DC00B800C000B800D00
311
0E000B800C000B800C0000
161
               422
310
4780601806018060180601806018060180501010180601404040601805010101806014040406014040406018060140404060140404
  0
ACAD_PROXY_OBJECT
  5
28575
102
{ACAD_REACTORS
330
C
102
}
330
C
100
AcDbProxyObject
 90
      499
 91
      504
 71
    31
 97
      105
 70
     0
161
               274
310
110000504000000000000000000010D44600000000000000000000000000AAA406AA80
360
28578
360
28586
360
28589
360
2858A
360
2858B
360
2858C
360
2858D
360
28592
360
28593
360
28594
360
28595
360
28596
360
287DD
 94
        0
  0
ACAD_PROXY_OBJECT
  5
28579
102
{ACAD_REACTORS
330
C
102
}
330
C
100
AcDbProxyObject
 90
      499
 91
      515
 71
    31
 97
      105
 70
     0
161
                50
310
11000044641280
  0
ACAD_PROXY_OBJECT
  5
28577
102
{ACAD_REACTORS
330
C
102
}
330
C
100
AcDbProxyObject
 90
      499
 91
      507
 71
    31
 97
      105
 70
     0
161
                32
310
90140A00
330
28578
 94
        0
  0
ACAD_PROXY_OBJECT
  5
28585
102
{ACAD_REACTORS
330
C
102
}
330
C
100
AcDbProxyObject
 90
      499
 91
      507
 71
    31
 97
      105
 70
     0
161
                40
310
90240E0000
330
28586
330
287DD
 94
        0
  0
DICTIONARY
  5
3F
102
{ACAD_REACTORS
330
C
102
}
330
C
100
AcDbDictionary
281
     1
  3
AcMgSettings
350
28571
  3
AMGLAYCFG
350
285B7
  0
DICTIONARY
  5
5B
102
{ACAD_REACTORS
330
C
102
}
330
C
100
AcDbDictionary
281
     1
  0
ACAD_PROXY_OBJECT
  5
28583
102
{ACAD_REACTORS
330
C
102
}
330
C
100
AcDbProxyObject
 90
      499
 91
      542
 71
    31
 97
      105
 70
     0
161
                34
310
0500004280
  0
DICTIONARY
  5
28D14
102
{ACAD_REACTORS
330
C
102
}
330
C
100
AcDbDictionary
281
     1
  0
ACAD_PROXY_OBJECT
  5
2858E
102
{ACAD_REACTORS
330
C
102
}
330
C
100
AcDbProxyObject
 90
      499
 91
      553
 71
    31
 97
      105
 70
     0
161
                98
310
0E000053C00000000000000000
330
28594
330
0
330
28595
330
0
330
0
330
0
330
0
330
0
 94
        0
  0
ACAD_PROXY_OBJECT
  5
28588
102
{ACAD_REACTORS
330
C
102
}
330
C
100
AcDbProxyObject
 90
      499
 91
      507
 71
    31
 97
      105
 70
     0
161
                64
310
90541A0000000000
330
28589
330
2858A
330
2858B
330
2858C
330
2858D
 94
        0
  0
ACAD_PROXY_OBJECT
  5
28584
102
{ACAD_REACTORS
330
C
102
}
330
C
100
AcDbProxyObject
 90
      499
 91
      543
 71
    31
 97
      105
 70
     0
161
                 8
310
05
  0
ACAD_PROXY_OBJECT
  5
28820
102
{ACAD_REACTORS
330
C
102
}
330
C
100
AcDbProxyObject
 90
      499
 91
      609
 71
    31
 97
      105
 70
     0
161
                 1
310
00
  0
DICTIONARY
  5
25449
102
{ACAD_REACTORS
330
20B7A
102
}
330
20B7A
100
AcDbDictionary
281
     1
  0
DICTIONARY
  5
20B7B
102
{ACAD_REACTORS
330
20B7A
102
}
330
20B7A
100
AcDbDictionary
280
     1
281
     1
  0
XRECORD
  5
245A7
102
{ACAD_REACTORS
330
245A6
102
}
330
245A6
100
AcDbXrecord
280
     1
290
     1
  0
XRECORD
  5
245AF
102
{ACAD_REACTORS
330
245AE
102
}
330
245AE
100
AcDbXrecord
280
     1
290
     1
  0
XRECORD
  5
245B3
102
{ACAD_REACTORS
330
245B2
102
}
330
245B2
100
AcDbXrecord
280
     1
290
     1
  0
XRECORD
  5
245F5
102
{ACAD_REACTORS
330
245F4
102
}
330
245F4
100
AcDbXrecord
280
     1
290
     1
  0
DICTIONARY
  5
26FAB
102
{ACAD_REACTORS
330
55
102
}
330
55
100
AcDbDictionary
281
     1
  3
ACAD_ASSOCNETWORK
350
26FAC
  0
SORTENTSTABLE
  5
E623
102
{ACAD_REACTORS
330
55
102
}
330
55
100
AcDbSortentsTable
330
1F
331
3089
  5
3089
331
308A
  5
308A
331
52F1
  5
52F1
331
52F2
  5
52F2
331
52F3
  5
52F3
331
52F4
  5
52F4
331
52F5
  5
52F5
331
52F6
  5
52F6
331
535D
  5
535D
331
535E
  5
535E
331
535F
  5
535F
331
5360
  5
5360
331
5361
  5
5361
331
54EC
  5
54EC
331
54ED
  5
54ED
331
54EE
  5
54EE
331
54EF
  5
54EF
331
54F0
  5
54F0
331
56DF
  5
56DF
331
56E0
  5
56E0
331
56E1
  5
56E1
331
56E2
  5
56E2
331
56E3
  5
56E3
331
56E4
  5
56E4
331
5914
  5
5914
331
5915
  5
5915
331
5916
  5
5916
331
5917
  5
5917
331
5918
  5
5918
331
5E52
  5
5E52
331
5E53
  5
5E53
331
5E54
  5
5E54
331
5E55
  5
5E55
331
5E56
  5
5E56
331
5E57
  5
5E57
331
1D442
  5
1D443
331
1D443
  5
1D444
331
1D444
  5
1D445
331
1D445
  5
1D446
331
1D446
  5
1D447
331
1D447
  5
1D448
331
1D448
  5
1D449
331
1D449
  5
1D44A
331
1D44A
  5
1D44B
331
1D44B
  5
1D44C
331
1D44C
  5
1D44D
331
1D44D
  5
1D44E
331
1D44E
  5
1D44F
331
1D44F
  5
1D450
331
1D450
  5
1D451
331
1D451
  5
1D452
331
1D452
  5
1D453
331
1D453
  5
1D454
331
1D454
  5
1D455
331
1D455
  5
1D456
331
1D456
  5
1D457
331
1D457
  5
1D458
331
1D458
  5
1D459
331
1D459
  5
1D45A
331
1D45A
  5
1D45B
331
1D45B
  5
1D45C
331
1D45C
  5
1D45D
331
1D45D
  5
1D45E
331
1D45E
  5
1D45F
331
1D45F
  5
1D460
331
1D460
  5
1D461
331
1D461
  5
1D462
331
1D462
  5
1D463
331
1D463
  5
1D464
331
1D464
  5
1DEF0
331
2773F
  5
2773F
331
27740
  5
27740
331
27741
  5
27741
331
27742
  5
27742
331
27743
  5
27743
331
27744
  5
27744
331
27745
  5
27745
331
27746
  5
27746
331
27747
  5
27747
331
27748
  5
27748
331
27749
  5
27749
331
2774A
  5
2774A
331
2774B
  5
2774B
331
2774C
  5
2774C
331
2774D
  5
2774D
331
2774E
  5
2774E
331
2774F
  5
2774F
331
27750
  5
27750
331
27751
  5
27751
331
27752
  5
27752
331
27753
  5
27753
331
27754
  5
27754
331
27755
  5
27755
331
27756
  5
27756
331
27757
  5
27757
331
27758
  5
27758
331
2775B
  5
2775B
331
2775C
  5
2775C
331
2775D
  5
2775D
331
2775E
  5
2775E
331
2775F
  5
2775F
331
27760
  5
27760
331
27761
  5
27761
331
27762
  5
27762
331
27763
  5
27763
331
27764
  5
27764
331
27765
  5
27765
331
27766
  5
27766
331
27767
  5
27767
331
27768
  5
27768
331
27769
  5
27769
331
2776A
  5
2776A
331
2776B
  5
2776B
331
2776C
  5
2776C
331
2776F
  5
2776F
331
27770
  5
27770
331
27771
  5
27771
331
0
  5
27772
331
0
  5
27773
331
0
  5
27774
331
0
  5
27775
331
0
  5
27776
331
0
  5
27777
331
0
  5
27778
331
0
  5
27779
331
0
  5
2777A
331
0
  5
2777B
331
0
  5
2777C
331
0
  5
2777D
331
0
  5
2777E
331
0
  5
2777F
331
0
  5
27780
331
0
  5
27781
331
0
  5
27782
331
0
  5
27783
331
0
  5
27784
331
0
  5
27787
331
0
  5
27788
331
0
  5
27789
331
0
  5
2778A
331
0
  5
2778B
331
0
  5
2778C
331
0
  5
2778D
331
0
  5
2778E
331
0
  5
2778F
331
0
  5
27790
331
0
  5
27791
331
0
  5
27792
331
0
  5
27793
331
0
  5
27794
331
0
  5
27795
331
0
  5
27796
331
0
  5
27797
331
0
  5
27798
331
0
  5
2779B
331
0
  5
2779C
331
0
  5
2779D
331
0
  5
2779E
331
0
  5
2779F
331
0
  5
277A0
331
0
  5
277A1
331
0
  5
277A2
331
0
  5
277A3
331
0
  5
277A4
331
0
  5
277A5
331
0
  5
277A6
331
0
  5
277A7
331
0
  5
277A8
331
0
  5
277A9
331
0
  5
277AA
331
0
  5
277AB
331
0
  5
277AC
331
0
  5
277AD
331
0
  5
277AE
331
0
  5
277AF
331
0
  5
277B0
331
0
  5
277B1
331
0
  5
277B2
331
0
  5
277B3
331
0
  5
277B4
331
0
  5
277B5
331
0
  5
277B6
331
0
  5
277B7
331
0
  5
277B8
331
0
  5
277BA
331
0
  5
277BB
331
0
  5
277BC
331
0
  5
277BD
331
0
  5
277BE
331
0
  5
277BF
331
0
  5
277C0
331
0
  5
277C1
331
0
  5
277C2
331
0
  5
277C3
331
0
  5
277C4
331
0
  5
277C5
331
0
  5
277C6
331
0
  5
277C7
331
0
  5
277C8
331
0
  5
277C9
331
0
  5
277CA
331
0
  5
277CB
331
0
  5
277CC
331
0
  5
277CD
331
0
  5
277CF
331
277D0
  5
277D0
331
0
  5
277D1
331
277DA
  5
277DA
331
0
  5
277DB
331
0
  5
277DC
331
0
  5
277DD
331
277DE
  5
277DE
331
0
  5
277DF
331
0
  5
277E0
331
0
  5
277E1
  0
ACAD_PROXY_OBJECT
  5
26FAE
102
{ACAD_REACTORS
330
26FAD
102
}
330
26FAD
100
AcDbProxyObject
 90
      499
 91
      615
 71
    31
 97
      105
 70
     0
161
                51
310
40AAAAA4050140
330
0
360
0
330
26FAC
 94
        0
  0
ACDBDETAILVIEWSTYLE
  5
2845D
102
{ACAD_REACTORS
330
2845C
102
}
330
2845C
100
AcDbModelDocViewStyle
 70
     0
  3
Metric50
290
     0
300
Metric50
 90
        0
100
AcDbDetailViewStyle
 70
     0
 71
     0
 90
        3
 71
     1
340
11
 62
   256
 40
5.0
340
0
 62
   256
 40
5.0
300

 40
0.0
280
     1
 71
     2
340
16
 90
       25
 62
   256
 71
     3
340
11
 62
   256
 40
5.0
 90
        0
 40
15.0
 90
        1
300
%<\AcVar ViewDetailId>% (%<\AcVar ViewScale \f "%sn">%)
 71
     4
340
16
 90
       25
 62
   256
340
16
 90
       25
 62
   256
280
     0
  0
IMAGEDEF
  5
2864A
102
{ACAD_REACTORS
330
218BD
102
}
330
218BD
100
AcDbRasterImageDef
 90
        0
  1
\\dc2\TecnicoD\Foto\3 LOGHI\Logo DYNAIR ufficiale_nero.tif
 10
1416.0
 20
293.0
 11
0.08466666666666665
 21
0.08466666666666665
280
     1
281
     3
  0
IMAGEDEF
  5
2864B
102
{ACAD_REACTORS
330
218BD
102
}
330
218BD
100
AcDbRasterImageDef
 90
        0
  1
\\dc2\TecnicoD\Foto\3 LOGHI\Logo ELICENT ufficiale_nero.tif
 10
1515.0
 20
391.0
 11
0.08466666666666665
 21
0.08466666666666665
280
     1
281
     3
  0
LAYOUT
  5
1E
102
{ACAD_REACTORS
330
1A
102
}
330
1A
100
AcDbPlotSettings
  1

  2
\\SRVDYNAIR\HP LaserJet 4V
  4

  6

 40
0.0
 41
0.0
 42
0.0
 43
0.0
 44
0.0
 45
0.0
 46
0.0
 47
0.0
 48
0.0
 49
0.0
140
0.0
141
0.0
142
1.0
143
1.0
 70
   688
 72
     0
 73
     0
 74
     5
  7
monochrome.ctb
 75
    16
 76
     0
 77
     2
 78
   300
147
1.0
148
0.0
149
0.0
100
AcDbLayout
  1
Layout1
 70
     1
 71
     1
 10
0.0
 20
0.0
 11
420.0
 21
297.0
 12
0.0
 22
0.0
 32
0.0
 14
1.000000000000000E+20
 24
1.000000000000000E+20
 34
1.000000000000000E+20
 15
-1.000000000000000E+20
 25
-1.000000000000000E+20
 35
-1.000000000000000E+20
146
0.0
 13
0.0
 23
0.0
 33
0.0
 16
1.0
 26
0.0
 36
0.0
 17
0.0
 27
1.0
 37
0.0
 76
     0
330
1B
  0
LAYOUT
  5
26
102
{ACAD_REACTORS
330
1A
102
}
330
1A
100
AcDbPlotSettings
  1

  2
\\SRVDYNAIR\HP LaserJet 4V
  4

  6

 40
0.0
 41
0.0
 42
0.0
 43
0.0
 44
0.0
 45
0.0
 46
0.0
 47
0.0
 48
0.0
 49
0.0
140
0.0
141
0.0
142
1.0
143
1.0
 70
   688
 72
     0
 73
     0
 74
     5
  7
monochrome.ctb
 75
    16
 76
     0
 77
     2
 78
   300
147
1.0
148
0.0
149
0.0
100
AcDbLayout
  1
Layout2
 70
     1
 71
     2
 10
0.0
 20
0.0
 11
12.0
 21
9.0
 12
0.0
 22
0.0
 32
0.0
 14
0.0
 24
0.0
 34
0.0
 15
0.0
 25
0.0
 35
0.0
146
0.0
 13
0.0
 23
0.0
 33
0.0
 16
1.0
 26
0.0
 36
0.0
 17
0.0
 27
1.0
 37
0.0
 76
     0
330
23
  0
LAYOUT
  5
22
102
{ACAD_REACTORS
330
1A
102
}
330
1A
100
AcDbPlotSettings
  1

  2
\\SRVDYNAIR\HP LaserJet 4V
  4
A3
  6

 40
7.143749713897705
 41
5.873747825622559
 42
7.143768310546875
 43
5.873748779296875
 44
296.9259948730469
 45
419.9466552734375
 46
0.0
 47
0.0
 48
-1735.940869217346
 49
-5022.488565694854
140
364.9892747297199
141
-3424.000808072564
142
1.0
143
5.655591465979111
 70
 11952
 72
     1
 73
     1
 74
     4
  7
monochrome.ctb
 75
     0
 76
     0
 77
     2
 78
   300
147
0.1768161660925198
148
1735.940869217346
149
5022.488565694854
100
AcDbLayout
  1
Model
 70
     1
 71
     0
 10
0.0
 20
0.0
 11
12.0
 21
9.0
 12
0.0
 22
0.0
 32
0.0
 14
12.20867845024736
 24
414.7341045018564
 34
0.0
 15
223.5550510335717
 25
625.5477305837982
 35
0.0
146
0.0
 13
0.0
 23
0.0
 33
0.0
 16
1.0
 26
0.0
 36
0.0
 17
0.0
 27
1.0
 37
0.0
 76
     0
330
1F
331
241BC
  0
MATERIAL
  5
241BF
102
{ACAD_REACTORS
330
E53C
102
}
330
E53C
100
AcDbMaterial
  1
ByBlock
 72
     1
 94
       63
  0
MATERIAL
  5
241BE
102
{ACAD_REACTORS
330
E53C
102
}
330
E53C
100
AcDbMaterial
  1
ByLayer
 72
     1
 94
       63
  0
MATERIAL
  5
241C0
102
{ACAD_REACTORS
330
E53C
102
}
330
E53C
100
AcDbMaterial
  1
Global
 72
     1
 94
       63
  0
MLEADERSTYLE
  5
2451D
102
{ACAD_REACTORS
330
2451C
102
}
330
2451C
100
AcDbMLeaderStyle
179
     2
170
     2
171
     1
172
     0
 90
        2
 40
0.0
 41
0.0
173
     1
 91
-1056964608
340
14
 92
       -2
290
     1
 42
2.0
291
     1
 43
0.36
  3
Standard
341
0
 44
4.0
300

342
11
174
     1
178
     6
175
     1
176
     0
 93
-1056964608
 45
4.0
292
     0
297
     0
 46
4.0
343
0
 94
-1056964608
 47
1.0
 49
1.0
140
1.0
293
     1
141
0.0
294
     1
177
     0
142
1.0
295
     0
296
     0
143
0.125
271
     0
272
     9
273
     9
298
     0
  0
MLINESTYLE
  5
18
102
{ACAD_REACTORS
330
17
102
}
330
17
100
AcDbMlineStyle
  2
STANDARD
 70
     0
  3

 62
   256
 51
90.0
 52
90.0
 71
     2
 49
0.5
 62
   256
  6
BYLAYER
 49
-0.5
 62
   256
  6
BYLAYER
  0
ACDBPLACEHOLDER
  5
F
102
{ACAD_REACTORS
330
E
102
}
330
E
  0
SCALE
  5
244FB
102
{ACAD_REACTORS
330
244FA
102
}
330
244FA
100
AcDbScale
 70
     0
300
1:1
140
1.0
141
1.0
290
     1
  0
SCALE
  5
244FC
102
{ACAD_REACTORS
330
244FA
102
}
330
244FA
100
AcDbScale
 70
     0
300
1:2
140
1.0
141
2.0
290
     0
  0
SCALE
  5
244FD
102
{ACAD_REACTORS
330
244FA
102
}
330
244FA
100
AcDbScale
 70
     0
300
1:4
140
1.0
141
4.0
290
     0
  0
SCALE
  5
244FE
102
{ACAD_REACTORS
330
244FA
102
}
330
244FA
100
AcDbScale
 70
     0
300
1:5
140
1.0
141
5.0
290
     0
  0
SCALE
  5
244FF
102
{ACAD_REACTORS
330
244FA
102
}
330
244FA
100
AcDbScale
 70
     0
300
1:8
140
1.0
141
8.0
290
     0
  0
SCALE
  5
24500
102
{ACAD_REACTORS
330
244FA
102
}
330
244FA
100
AcDbScale
 70
     0
300
1:10
140
1.0
141
10.0
290
     0
  0
SCALE
  5
24501
102
{ACAD_REACTORS
330
244FA
102
}
330
244FA
100
AcDbScale
 70
     0
300
1:16
140
1.0
141
16.0
290
     0
  0
SCALE
  5
24502
102
{ACAD_REACTORS
330
244FA
102
}
330
244FA
100
AcDbScale
 70
     0
300
1:20
140
1.0
141
20.0
290
     0
  0
SCALE
  5
24503
102
{ACAD_REACTORS
330
244FA
102
}
330
244FA
100
AcDbScale
 70
     0
300
1:30
140
1.0
141
30.0
290
     0
  0
SCALE
  5
24504
102
{ACAD_REACTORS
330
244FA
102
}
330
244FA
100
AcDbScale
 70
     0
300
1:40
140
1.0
141
40.0
290
     0
  0
SCALE
  5
24505
102
{ACAD_REACTORS
330
244FA
102
}
330
244FA
100
AcDbScale
 70
     0
300
1:50
140
1.0
141
50.0
290
     0
  0
SCALE
  5
24506
102
{ACAD_REACTORS
330
244FA
102
}
330
244FA
100
AcDbScale
 70
     0
300
1:100
140
1.0
141
100.0
290
     0
  0
SCALE
  5
24507
102
{ACAD_REACTORS
330
244FA
102
}
330
244FA
100
AcDbScale
 70
     0
300
2:1
140
2.0
141
1.0
290
     0
  0
SCALE
  5
24508
102
{ACAD_REACTORS
330
244FA
102
}
330
244FA
100
AcDbScale
 70
     0
300
4:1
140
4.0
141
1.0
290
     0
  0
SCALE
  5
24509
102
{ACAD_REACTORS
330
244FA
102
}
330
244FA
100
AcDbScale
 70
     0
300
8:1
140
8.0
141
1.0
290
     0
  0
SCALE
  5
2450A
102
{ACAD_REACTORS
330
244FA
102
}
330
244FA
100
AcDbScale
 70
     0
300
10:1
140
10.0
141
1.0
290
     0
  0
SCALE
  5
2450B
102
{ACAD_REACTORS
330
244FA
102
}
330
244FA
100
AcDbScale
 70
     0
300
100:1
140
100.0
141
1.0
290
     0
  0
SCALE
  5
2450C
102
{ACAD_REACTORS
330
244FA
102
}
330
244FA
100
AcDbScale
 70
     0
300
1/128" = 1'-0"
140
0.0078125
141
12.0
290
     0
  0
SCALE
  5
2450D
102
{ACAD_REACTORS
330
244FA
102
}
330
244FA
100
AcDbScale
 70
     0
300
1/64" = 1'-0"
140
0.015625
141
12.0
290
     0
  0
SCALE
  5
2450E
102
{ACAD_REACTORS
330
244FA
102
}
330
244FA
100
AcDbScale
 70
     0
300
1/32" = 1'-0"
140
0.03125
141
12.0
290
     0
  0
SCALE
  5
2450F
102
{ACAD_REACTORS
330
244FA
102
}
330
244FA
100
AcDbScale
 70
     0
300
1/16" = 1'-0"
140
0.0625
141
12.0
290
     0
  0
SCALE
  5
24510
102
{ACAD_REACTORS
330
244FA
102
}
330
244FA
100
AcDbScale
 70
     0
300
3/32" = 1'-0"
140
0.09375
141
12.0
290
     0
  0
SCALE
  5
24511
102
{ACAD_REACTORS
330
244FA
102
}
330
244FA
100
AcDbScale
 70
     0
300
1/8" = 1'-0"
140
0.125
141
12.0
290
     0
  0
SCALE
  5
24512
102
{ACAD_REACTORS
330
244FA
102
}
330
244FA
100
AcDbScale
 70
     0
300
3/16" = 1'-0"
140
0.1875
141
12.0
290
     0
  0
SCALE
  5
24513
102
{ACAD_REACTORS
330
244FA
102
}
330
244FA
100
AcDbScale
 70
     0
300
1/4" = 1'-0"
140
0.25
141
12.0
290
     0
  0
SCALE
  5
24514
102
{ACAD_REACTORS
330
244FA
102
}
330
244FA
100
AcDbScale
 70
     0
300
3/8" = 1'-0"
140
0.375
141
12.0
290
     0
  0
SCALE
  5
24515
102
{ACAD_REACTORS
330
244FA
102
}
330
244FA
100
AcDbScale
 70
     0
300
1/2" = 1'-0"
140
0.5
141
12.0
290
     0
  0
SCALE
  5
24516
102
{ACAD_REACTORS
330
244FA
102
}
330
244FA
100
AcDbScale
 70
     0
300
3/4" = 1'-0"
140
0.75
141
12.0
290
     0
  0
SCALE
  5
24517
102
{ACAD_REACTORS
330
244FA
102
}
330
244FA
100
AcDbScale
 70
     0
300
1" = 1'-0"
140
1.0
141
12.0
290
     0
  0
SCALE
  5
24518
102
{ACAD_REACTORS
330
244FA
102
}
330
244FA
100
AcDbScale
 70
     0
300
1-1/2" = 1'-0"
140
1.5
141
12.0
290
     0
  0
SCALE
  5
24519
102
{ACAD_REACTORS
330
244FA
102
}
330
244FA
100
AcDbScale
 70
     0
300
3" = 1'-0"
140
3.0
141
12.0
290
     0
  0
SCALE
  5
2451A
102
{ACAD_REACTORS
330
244FA
102
}
330
244FA
100
AcDbScale
 70
     0
300
6" = 1'-0"
140
6.0
141
12.0
290
     0
  0
SCALE
  5
2451B
102
{ACAD_REACTORS
330
244FA
102
}
330
244FA
100
AcDbScale
 70
     0
300
1'-0" = 1'-0"
140
12.0
141
12.0
290
     0
  0
ACDBSECTIONVIEWSTYLE
  5
2845B
102
{ACAD_REACTORS
330
2845A
102
}
330
2845A
100
AcDbModelDocViewStyle
 70
     0
  3
Metric50
290
     0
300
Metric50
 90
        0
100
AcDbSectionViewStyle
 70
     0
 71
     0
 90
      102
 71
     1
340
11
 62
   256
 40
5.0
340
0
340
0
 62
   256
 40
5.0
300
I, O, Q, S, X, Z
 40
10.0
 90
        0
 40
2.5
 90
        0
 71
     2
340
16
 90
       25
 62
   256
340
16
 90
       50
 62
   256
 40
5.0
 40
2.5
 40
5.0
 71
     3
340
11
 62
   256
 40
5.0
 90
        0
 40
15.0
 90
        1
300
%<\AcVar ViewSectionStartId>%-%<\AcVar ViewSectionEndId>% (%<\AcVar ViewScale \f "%sn">%)
 71
     4
 62
   256
 62
   257
300
ANSI31
 40
1.0
 90
        0
290
     0
290
     0
 90
        6
 40
0.0
 40
1.570796326794897
 40
0.2617993877991494
 40
1.308996938995747
 40
-0.2617993877991494
 40
1.832595714594046
  0
TABLESTYLE
  5
E57B
102
{ACAD_REACTORS
330
E57A
102
}
102
{ACAD_XDICTIONARY
360
2903F
102
}
330
E57A
100
AcDbTableStyle
  3
Standard
 70
     0
 71
     0
 40
1.5
 41
1.5
280
     0
281
     0
  7
Standard
140
4.5
170
     2
 62
     0
 63
   257
283
     0
 90
        4
 91
        0
  1

274
    -2
284
     1
 64
     0
275
    -2
285
     1
 65
     0
276
    -2
286
     1
 66
     0
277
    -2
287
     1
 67
     0
278
    -2
288
     1
 68
     0
279
    -2
289
     1
 69
     0
  7
Standard
140
6.0
170
     5
 62
     0
 63
   257
283
     0
 90
        4
 91
        0
  1

274
    -2
284
     1
 64
     0
275
    -2
285
     1
 65
     0
276
    -2
286
     1
 66
     0
277
    -2
287
     1
 67
     0
278
    -2
288
     1
 68
     0
279
    -2
289
     1
 69
     0
  7
Standard
140
4.5
170
     5
 62
     0
 63
   257
283
     0
 90
        4
 91
        0
  1

274
    -2
284
     1
 64
     0
275
    -2
285
     1
 65
     0
276
    -2
286
     1
 66
     0
277
    -2
287
     1
 67
     0
278
    -2
288
     1
 68
     0
279
    -2
289
     1
 69
     0
  0
VISUALSTYLE
  5
241C7
102
{ACAD_REACTORS
330
241C1
102
}
330
241C1
100
AcDbVisualStyle
  2
2dWireframe
 70
     4
177
     3
291
     0
 70
    58
 90
        0
176
     1
 90
        2
176
     1
 90
        0
176
     1
 90
        0
176
     1
 40
0.6
176
     1
 40
30.0
176
     1
 62
     7
420
 16777215
176
     1
 90
        1
176
     1
 90
        4
176
     1
 62
     7
176
     1
 62
   257
176
     1
 90
        1
176
     1
 90
        1
176
     1
 40
1.0
176
     1
 90
        0
176
     1
 62
   257
176
     1
 40
1.0
176
     1
 90
        1
176
     1
 90
        6
176
     1
 90
        2
176
     1
 62
     7
176
     1
 90
        5
176
     1
 90
        0
176
     1
 90
        0
176
     1
290
     0
176
     1
 90
        1
176
     1
 40
0.0
176
     1
 90
        0
176
     1
290
     1
176
     1
290
     1
176
     1
290
     0
176
     1
290
     0
176
     1
290
     0
176
     1
290
     0
176
     1
290
     0
176
     1
290
     0
176
     1
290
     0
176
     1
 90
       50
176
     1
 40
0.0
176
     1
 40
1.0
176
     1
 90
        0
176
     1
 62
    18
420
        0
176
     1
 90
       50
176
     1
 90
        3
176
     1
 62
     5
420
      255
176
     1
290
     0
176
     1
 90
       50
176
     1
 90
       50
176
     1
 90
       50
176
     1
290
     0
176
     1
 90
       50
176
     1
 62
   256
176
     0
 40
1.0
176
     0
 90
        2
176
     1
  1
strokes_ogs.tif
176
     1
290
     0
176
     1
 40
1.0
176
     1
 40
1.0
176
     1
  0
VISUALSTYLE
  5
241C9
102
{ACAD_REACTORS
330
241C1
102
}
330
241C1
100
AcDbVisualStyle
  2
3D Hidden
 70
     6
177
     3
291
     0
 70
    58
 90
        1
176
     1
 90
        2
176
     1
 90
        2
176
     1
 90
        0
176
     1
 40
0.6
176
     1
 40
30.0
176
     1
 62
     7
420
 16777215
176
     1
 90
        2
176
     1
 90
        2
176
     1
 62
     7
176
     1
 62
   257
176
     1
 90
        2
176
     1
 90
        1
176
     1
 40
40.0
176
     1
 90
        0
176
     1
 62
   257
176
     1
 40
1.0
176
     1
 90
        1
176
     1
 90
        6
176
     1
 90
        2
176
     1
 62
     7
176
     1
 90
        3
176
     1
 90
        0
176
     1
 90
        0
176
     1
290
     0
176
     1
 90
        1
176
     1
 40
0.0
176
     1
 90
        0
176
     1
290
     0
176
     1
290
     1
176
     1
290
     1
176
     1
290
     0
176
     1
290
     0
176
     1
290
     0
176
     1
290
     0
176
     1
290
     0
176
     1
290
     0
176
     1
 90
       50
176
     1
 40
0.0
176
     1
 40
1.0
176
     1
 90
        0
176
     1
 62
    18
420
        0
176
     1
 90
       50
176
     1
 90
        3
176
     1
 62
     5
420
      255
176
     1
290
     0
176
     1
 90
       50
176
     1
 90
       50
176
     1
 90
       50
176
     1
290
     0
176
     1
 90
       50
176
     1
 62
   256
176
     0
 40
1.0
176
     0
 90
        2
176
     1
  1
strokes_ogs.tif
176
     1
290
     0
176
     1
 40
1.0
176
     1
 40
1.0
176
     1
  0
VISUALSTYLE
  5
241C8
102
{ACAD_REACTORS
330
241C1
102
}
330
241C1
100
AcDbVisualStyle
  2
3dWireframe
 70
     5
177
     3
291
     0
 70
    58
 90
        0
176
     1
 90
        2
176
     1
 90
        0
176
     1
 90
        0
176
     1
 40
0.6
176
     1
 40
30.0
176
     1
 62
     7
420
 16777215
176
     1
 90
        1
176
     1
 90
        4
176
     1
 62
     7
176
     1
 62
   257
176
     1
 90
        1
176
     1
 90
        1
176
     1
 40
1.0
176
     1
 90
        0
176
     1
 62
   257
176
     1
 40
1.0
176
     1
 90
        1
176
     1
 90
        6
176
     1
 90
        2
176
     1
 62
     7
176
     1
 90
        5
176
     1
 90
        0
176
     1
 90
        0
176
     1
290
     0
176
     1
 90
        1
176
     1
 40
0.0
176
     1
 90
        0
176
     1
290
     0
176
     1
290
     1
176
     1
290
     1
176
     1
290
     0
176
     1
290
     0
176
     1
290
     0
176
     1
290
     0
176
     1
290
     0
176
     1
290
     0
176
     1
 90
       50
176
     1
 40
0.0
176
     1
 40
1.0
176
     1
 90
        0
176
     1
 62
    18
420
        0
176
     1
 90
       50
176
     1
 90
        3
176
     1
 62
     5
420
      255
176
     1
290
     0
176
     1
 90
       50
176
     1
 90
       50
176
     1
 90
       50
176
     1
290
     0
176
     1
 90
       50
176
     1
 62
   256
176
     0
 40
1.0
176
     0
 90
        2
176
     1
  1
strokes_ogs.tif
176
     1
290
     0
176
     1
 40
1.0
176
     1
 40
1.0
176
     1
  0
VISUALSTYLE
  5
241C6
102
{ACAD_REACTORS
330
241C1
102
}
330
241C1
100
AcDbVisualStyle
  2
Basic
 70
     7
177
     3
291
     1
 70
    58
 90
        1
176
     1
 90
        0
176
     1
 90
        1
176
     1
 90
        0
176
     1
 40
0.6
176
     1
 40
30.0
176
     1
 62
     7
420
 16777215
176
     1
 90
        0
176
     1
 90
        4
176
     1
 62
     7
176
     1
 62
   257
176
     1
 90
        1
176
     1
 90
        1
176
     1
 40
1.0
176
     1
 90
        8
176
     1
 62
     7
176
     1
 40
1.0
176
     1
 90
        1
176
     1
 90
        6
176
     1
 90
        2
176
     1
 62
     7
176
     1
 90
        5
176
     1
 90
        0
176
     1
 90
        0
176
     1
290
     0
176
     1
 90
        1
176
     1
 40
0.0
176
     1
 90
        0
176
     1
290
     0
176
     1
290
     1
176
     1
290
     1
176
     1
290
     0
176
     1
290
     0
176
     1
290
     0
176
     1
290
     0
176
     1
290
     0
176
     1
290
     0
176
     1
 90
       50
176
     1
 40
0.0
176
     1
 40
1.0
176
     1
 90
        0
176
     1
 62
    18
420
        0
176
     1
 90
       50
176
     1
 90
        3
176
     1
 62
     5
420
      255
176
     1
290
     0
176
     1
 90
       50
176
     1
 90
       50
176
     1
 90
       50
176
     1
290
     0
176
     1
 90
       50
176
     1
 62
   256
176
     0
 40
1.0
176
     0
 90
        2
176
     1
  1
strokes_ogs.tif
176
     1
290
     0
176
     1
 40
1.0
176
     1
 40
1.0
176
     1
  0
VISUALSTYLE
  5
241CD
102
{ACAD_REACTORS
330
241C1
102
}
330
241C1
100
AcDbVisualStyle
  2
Brighten
 70
    12
177
     3
291
     1
 70
    58
 90
        2
176
     1
 90
        2
176
     1
 90
        0
176
     1
 90
        0
176
     1
 40
0.6
176
     1
 40
30.0
176
     1
 62
     7
420
 16777215
176
     1
 90
        1
176
     1
 90
        4
176
     1
 62
     7
176
     1
 62
   257
176
     1
 90
        1
176
     1
 90
        1
176
     1
 40
1.0
176
     1
 90
        8
176
     1
 62
     7
176
     1
 40
1.0
176
     1
 90
        1
176
     1
 90
        6
176
     1
 90
        2
176
     1
 62
     7
176
     1
 90
        5
176
     1
 90
        0
176
     1
 90
        0
176
     1
290
     0
176
     1
 90
        1
176
     1
 40
50.0
176
     1
 90
        0
176
     1
290
     0
176
     1
290
     1
176
     1
290
     1
176
     1
290
     0
176
     1
290
     0
176
     1
290
     0
176
     1
290
     0
176
     1
290
     0
176
     1
290
     0
176
     1
 90
       50
176
     1
 40
0.0
176
     1
 40
1.0
176
     1
 90
        0
176
     1
 62
    18
420
        0
176
     1
 90
       50
176
     1
 90
        3
176
     1
 62
     5
420
      255
176
     1
290
     0
176
     1
 90
       50
176
     1
 90
       50
176
     1
 90
       50
176
     1
290
     0
176
     1
 90
       50
176
     1
 62
   256
176
     0
 40
1.0
176
     0
 90
        2
176
     1
  1
strokes_ogs.tif
176
     1
290
     0
176
     1
 40
1.0
176
     1
 40
1.0
176
     1
  0
VISUALSTYLE
  5
241D1
102
{ACAD_REACTORS
330
241C1
102
}
330
241C1
100
AcDbVisualStyle
  2
ColorChange
 70
    16
177
     3
291
     1
 70
    58
 90
        2
176
     1
 90
        2
176
     1
 90
        3
176
     1
 90
        0
176
     1
 40
0.6
176
     1
 40
30.0
176
     1
 62
     8
420
  8421504
176
     1
 90
        1
176
     1
 90
        4
176
     1
 62
     7
176
     1
 62
   257
176
     1
 90
        1
176
     1
 90
        1
176
     1
 40
1.0
176
     1
 90
        8
176
     1
 62
     8
420
  8421504
176
     1
 40
1.0
176
     1
 90
        1
176
     1
 90
        6
176
     1
 90
        2
176
     1
 62
     7
176
     1
 90
        5
176
     1
 90
        0
176
     1
 90
        0
176
     1
290
     0
176
     1
 90
        1
176
     1
 40
0.0
176
     1
 90
        0
176
     1
290
     0
176
     1
290
     1
176
     1
290
     1
176
     1
290
     0
176
     1
290
     0
176
     1
290
     0
176
     1
290
     0
176
     1
290
     0
176
     1
290
     0
176
     1
 90
       50
176
     1
 40
0.0
176
     1
 40
1.0
176
     1
 90
        0
176
     1
 62
    18
420
        0
176
     1
 90
       50
176
     1
 90
        3
176
     1
 62
     5
420
      255
176
     1
290
     0
176
     1
 90
       50
176
     1
 90
       50
176
     1
 90
       50
176
     1
290
     0
176
     1
 90
       50
176
     1
 62
   256
176
     0
 40
1.0
176
     0
 90
        2
176
     1
  1
strokes_ogs.tif
176
     1
290
     0
176
     1
 40
1.0
176
     1
 40
1.0
176
     1
  0
VISUALSTYLE
  5
241CA
102
{ACAD_REACTORS
330
241C1
102
}
330
241C1
100
AcDbVisualStyle
  2
Conceptual
 70
     9
177
     3
291
     0
 70
    58
 90
        3
176
     1
 90
        2
176
     1
 90
        0
176
     1
 90
        0
176
     1
 40
0.6
176
     1
 40
30.0
176
     1
 62
     7
420
 16777215
176
     1
 90
        2
176
     1
 90
        2
176
     1
 62
     7
176
     1
 62
   257
176
     1
 90
        1
176
     1
 90
        1
176
     1
 40
40.0
176
     1
 90
        8
176
     1
 62
     7
176
     1
 40
1.0
176
     1
 90
        1
176
     1
 90
        6
176
     1
 90
        2
176
     1
 62
     7
176
     1
 90
        3
176
     1
 90
        0
176
     1
 90
        0
176
     1
290
     0
176
     1
 90
        1
176
     1
 40
0.0
176
     1
 90
        0
176
     1
290
     0
176
     1
290
     1
176
     1
290
     1
176
     1
290
     0
176
     1
290
     0
176
     1
290
     0
176
     1
290
     0
176
     1
290
     0
176
     1
290
     0
176
     1
 90
       50
176
     1
 40
0.0
176
     1
 40
1.0
176
     1
 90
        0
176
     1
 62
    18
420
        0
176
     1
 90
       50
176
     1
 90
        3
176
     1
 62
     5
420
      255
176
     1
290
     0
176
     1
 90
       50
176
     1
 90
       50
176
     1
 90
       50
176
     1
290
     0
176
     1
 90
       50
176
     1
 62
   256
176
     0
 40
1.0
176
     0
 90
        2
176
     1
  1
strokes_ogs.tif
176
     1
290
     0
176
     1
 40
1.0
176
     1
 40
1.0
176
     1
  0
VISUALSTYLE
  5
241CC
102
{ACAD_REACTORS
330
241C1
102
}
330
241C1
100
AcDbVisualStyle
  2
Dim
 70
    11
177
     3
291
     1
 70
    58
 90
        2
176
     1
 90
        2
176
     1
 90
        0
176
     1
 90
        0
176
     1
 40
0.6
176
     1
 40
30.0
176
     1
 62
     7
420
 16777215
176
     1
 90
        1
176
     1
 90
        4
176
     1
 62
     7
176
     1
 62
   257
176
     1
 90
        1
176
     1
 90
        1
176
     1
 40
1.0
176
     1
 90
        8
176
     1
 62
     7
176
     1
 40
1.0
176
     1
 90
        1
176
     1
 90
        6
176
     1
 90
        2
176
     1
 62
     7
176
     1
 90
        5
176
     1
 90
        0
176
     1
 90
        0
176
     1
290
     0
176
     1
 90
        1
176
     1
 40
-50.0
176
     1
 90
        0
176
     1
290
     0
176
     1
290
     1
176
     1
290
     1
176
     1
290
     0
176
     1
290
     0
176
     1
290
     0
176
     1
290
     0
176
     1
290
     0
176
     1
290
     0
176
     1
 90
       50
176
     1
 40
0.0
176
     1
 40
1.0
176
     1
 90
        0
176
     1
 62
    18
420
        0
176
     1
 90
       50
176
     1
 90
        3
176
     1
 62
     5
420
      255
176
     1
290
     0
176
     1
 90
       50
176
     1
 90
       50
176
     1
 90
       50
176
     1
290
     0
176
     1
 90
       50
176
     1
 62
   256
176
     0
 40
1.0
176
     0
 90
        2
176
     1
  1
strokes_ogs.tif
176
     1
290
     0
176
     1
 40
1.0
176
     1
 40
1.0
176
     1
  0
VISUALSTYLE
  5
24E01
102
{ACAD_REACTORS
330
241C1
102
}
330
241C1
100
AcDbVisualStyle
  2
EdgeColorOff
 70
    22
177
     3
291
     1
 70
    58
 90
        2
176
     0
 90
        2
176
     0
 90
        0
176
     0
 90
        0
176
     0
 40
0.6
176
     0
 40
30.0
176
     0
 62
     7
420
 16777215
176
     0
 90
        1
176
     0
 90
        4
176
     0
 62
     7
176
     0
 62
   257
176
     0
 90
        1
176
     0
 90
        1
176
     0
 40
1.0
176
     0
 90
        8
176
     2
 62
     7
176
     0
 40
1.0
176
     0
 90
        1
176
     0
 90
        6
176
     0
 90
        2
176
     0
 62
     7
176
     0
 90
        5
176
     0
 90
        0
176
     0
 90
        0
176
     0
290
     0
176
     0
 90
        1
176
     0
 40
0.0
176
     0
 90
        0
176
     0
290
     0
176
     1
290
     1
176
     1
290
     1
176
     1
290
     0
176
     1
290
     0
176
     1
290
     0
176
     1
290
     0
176
     1
290
     0
176
     1
290
     0
176
     1
 90
       50
176
     1
 40
0.0
176
     1
 40
1.0
176
     1
 90
        0
176
     1
 62
    18
420
        0
176
     1
 90
       50
176
     1
 90
        3
176
     1
 62
     5
420
      255
176
     1
290
     0
176
     1
 90
       50
176
     1
 90
       50
176
     1
 90
       50
176
     1
290
     0
176
     1
 90
       50
176
     1
 62
   256
176
     0
 40
1.0
176
     0
 90
        2
176
     1
  1
strokes_ogs.tif
176
     1
290
     0
176
     1
 40
1.0
176
     1
 40
1.0
176
     1
  0
VISUALSTYLE
  5
241D0
102
{ACAD_REACTORS
330
241C1
102
}
330
241C1
100
AcDbVisualStyle
  2
Facepattern
 70
    15
177
     3
291
     1
 70
    58
 90
        2
176
     1
 90
        2
176
     1
 90
        0
176
     1
 90
        0
176
     1
 40
0.6
176
     1
 40
30.0
176
     1
 62
     7
420
 16777215
176
     1
 90
        1
176
     1
 90
        4
176
     1
 62
     7
176
     1
 62
   257
176
     1
 90
        1
176
     1
 90
        1
176
     1
 40
1.0
176
     1
 90
        8
176
     1
 62
     7
176
     1
 40
1.0
176
     1
 90
        1
176
     1
 90
        6
176
     1
 90
        2
176
     1
 62
     7
176
     1
 90
        5
176
     1
 90
        0
176
     1
 90
        0
176
     1
290
     0
176
     1
 90
        1
176
     1
 40
0.0
176
     1
 90
        0
176
     1
290
     0
176
     1
290
     1
176
     1
290
     1
176
     1
290
     0
176
     1
290
     0
176
     1
290
     0
176
     1
290
     0
176
     1
290
     0
176
     1
290
     0
176
     1
 90
       50
176
     1
 40
0.0
176
     1
 40
1.0
176
     1
 90
        0
176
     1
 62
    18
420
        0
176
     1
 90
       50
176
     1
 90
        3
176
     1
 62
     5
420
      255
176
     1
290
     0
176
     1
 90
       50
176
     1
 90
       50
176
     1
 90
       50
176
     1
290
     0
176
     1
 90
       50
176
     1
 62
   256
176
     0
 40
1.0
176
     0
 90
        2
176
     1
  1
strokes_ogs.tif
176
     1
290
     0
176
     1
 40
1.0
176
     1
 40
1.0
176
     1
  0
VISUALSTYLE
  5
241C2
102
{ACAD_REACTORS
330
241C1
102
}
330
241C1
100
AcDbVisualStyle
  2
Flat
 70
     0
177
     3
291
     1
 70
    58
 90
        2
176
     1
 90
        1
176
     1
 90
        1
176
     1
 90
        2
176
     1
 40
0.6
176
     1
 40
30.0
176
     1
 62
     7
420
 16777215
176
     1
 90
        0
176
     1
 90
        4
176
     1
 62
     7
176
     1
 62
   257
176
     1
 90
        1
176
     1
 90
        1
176
     1
 40
1.0
176
     1
 90
        8
176
     1
 62
     7
176
     1
 40
1.0
176
     1
 90
        1
176
     1
 90
        6
176
     1
 90
        2
176
     1
 62
     7
176
     1
 90
        5
176
     1
 90
        0
176
     1
 90
        0
176
     1
290
     0
176
     1
 90
       13
176
     1
 40
0.0
176
     1
 90
        0
176
     1
290
     0
176
     1
290
     1
176
     1
290
     1
176
     1
290
     0
176
     1
290
     0
176
     1
290
     0
176
     1
290
     0
176
     1
290
     0
176
     1
290
     0
176
     1
 90
       50
176
     1
 40
0.0
176
     1
 40
1.0
176
     1
 90
        0
176
     1
 62
    18
420
        0
176
     1
 90
       50
176
     1
 90
        3
176
     1
 62
     5
420
      255
176
     1
290
     0
176
     1
 90
       50
176
     1
 90
       50
176
     1
 90
       50
176
     1
290
     0
176
     1
 90
       50
176
     1
 62
   256
176
     0
 40
1.0
176
     0
 90
        2
176
     1
  1
strokes_ogs.tif
176
     1
290
     0
176
     1
 40
1.0
176
     1
 40
1.0
176
     1
  0
VISUALSTYLE
  5
241C3
102
{ACAD_REACTORS
330
241C1
102
}
330
241C1
100
AcDbVisualStyle
  2
FlatWithEdges
 70
     1
177
     3
291
     1
 70
    58
 90
        2
176
     1
 90
        1
176
     1
 90
        1
176
     1
 90
        2
176
     1
 40
0.6
176
     1
 40
30.0
176
     1
 62
     7
420
 16777215
176
     1
 90
        1
176
     1
 90
        4
176
     1
 62
     7
176
     1
 62
   257
176
     1
 90
        1
176
     1
 90
        1
176
     1
 40
1.0
176
     1
 90
        0
176
     1
 62
   257
176
     1
 40
1.0
176
     1
 90
        1
176
     1
 90
        6
176
     1
 90
        2
176
     1
 62
     7
176
     1
 90
        5
176
     1
 90
        0
176
     1
 90
        0
176
     1
290
     0
176
     1
 90
       13
176
     1
 40
0.0
176
     1
 90
        0
176
     1
290
     0
176
     1
290
     1
176
     1
290
     1
176
     1
290
     0
176
     1
290
     0
176
     1
290
     0
176
     1
290
     0
176
     1
290
     0
176
     1
290
     0
176
     1
 90
       50
176
     1
 40
0.0
176
     1
 40
1.0
176
     1
 90
        0
176
     1
 62
    18
420
        0
176
     1
 90
       50
176
     1
 90
        3
176
     1
 62
     5
420
      255
176
     1
290
     0
176
     1
 90
       50
176
     1
 90
       50
176
     1
 90
       50
176
     1
290
     0
176
     1
 90
       50
176
     1
 62
   256
176
     0
 40
1.0
176
     0
 90
        2
176
     1
  1
strokes_ogs.tif
176
     1
290
     0
176
     1
 40
1.0
176
     1
 40
1.0
176
     1
  0
VISUALSTYLE
  5
241C4
102
{ACAD_REACTORS
330
241C1
102
}
330
241C1
100
AcDbVisualStyle
  2
Gouraud
 70
     2
177
     3
291
     1
 70
    58
 90
        2
176
     1
 90
        2
176
     1
 90
        1
176
     1
 90
        2
176
     1
 40
0.6
176
     1
 40
30.0
176
     1
 62
     7
420
 16777215
176
     1
 90
        0
176
     1
 90
        4
176
     1
 62
     7
176
     1
 62
   257
176
     1
 90
        1
176
     1
 90
        1
176
     1
 40
1.0
176
     1
 90
        0
176
     1
 62
     7
176
     1
 40
1.0
176
     1
 90
        1
176
     1
 90
        6
176
     1
 90
        2
176
     1
 62
     7
176
     1
 90
        5
176
     1
 90
        0
176
     1
 90
        0
176
     1
290
     0
176
     1
 90
       13
176
     1
 40
0.0
176
     1
 90
        0
176
     1
290
     0
176
     1
290
     1
176
     1
290
     1
176
     1
290
     0
176
     1
290
     0
176
     1
290
     0
176
     1
290
     0
176
     1
290
     0
176
     1
290
     0
176
     1
 90
       50
176
     1
 40
0.0
176
     1
 40
1.0
176
     1
 90
        0
176
     1
 62
    18
420
        0
176
     1
 90
       50
176
     1
 90
        3
176
     1
 62
     5
420
      255
176
     1
290
     0
176
     1
 90
       50
176
     1
 90
       50
176
     1
 90
       50
176
     1
290
     0
176
     1
 90
       50
176
     1
 62
   256
176
     0
 40
1.0
176
     0
 90
        2
176
     1
  1
strokes_ogs.tif
176
     1
290
     0
176
     1
 40
1.0
176
     1
 40
1.0
176
     1
  0
VISUALSTYLE
  5
241C5
102
{ACAD_REACTORS
330
241C1
102
}
330
241C1
100
AcDbVisualStyle
  2
GouraudWithEdges
 70
     3
177
     3
291
     1
 70
    58
 90
        2
176
     1
 90
        2
176
     1
 90
        1
176
     1
 90
        2
176
     1
 40
0.6
176
     1
 40
30.0
176
     1
 62
     7
420
 16777215
176
     1
 90
        1
176
     1
 90
        4
176
     1
 62
     7
176
     1
 62
   257
176
     1
 90
        1
176
     1
 90
        1
176
     1
 40
1.0
176
     1
 90
        0
176
     1
 62
   257
176
     1
 40
1.0
176
     1
 90
        1
176
     1
 90
        6
176
     1
 90
        2
176
     1
 62
     7
176
     1
 90
        5
176
     1
 90
        0
176
     1
 90
        0
176
     1
290
     0
176
     1
 90
       13
176
     1
 40
0.0
176
     1
 90
        0
176
     1
290
     0
176
     1
290
     1
176
     1
290
     1
176
     1
290
     0
176
     1
290
     0
176
     1
290
     0
176
     1
290
     0
176
     1
290
     0
176
     1
290
     0
176
     1
 90
       50
176
     1
 40
0.0
176
     1
 40
1.0
176
     1
 90
        0
176
     1
 62
    18
420
        0
176
     1
 90
       50
176
     1
 90
        3
176
     1
 62
     5
420
      255
176
     1
290
     0
176
     1
 90
       50
176
     1
 90
       50
176
     1
 90
       50
176
     1
290
     0
176
     1
 90
       50
176
     1
 62
   256
176
     0
 40
1.0
176
     0
 90
        2
176
     1
  1
strokes_ogs.tif
176
     1
290
     0
176
     1
 40
1.0
176
     1
 40
1.0
176
     1
  0
VISUALSTYLE
  5
24DF9
102
{ACAD_REACTORS
330
241C1
102
}
330
241C1
100
AcDbVisualStyle
  2
Hidden
 70
     6
177
     3
291
     0
 70
    58
 90
        1
176
     1
 90
        2
176
     1
 90
        2
176
     1
 90
        0
176
     1
 40
0.6
176
     1
 40
30.0
176
     1
 62
     7
420
 16777215
176
     1
 90
        2
176
     1
 90
        2
176
     1
 62
     7
176
     1
 62
   257
176
     1
 90
        2
176
     1
 90
        1
176
     1
 40
40.0
176
     1
 90
        0
176
     1
 62
   257
176
     1
 40
1.0
176
     1
 90
        1
176
     1
 90
        6
176
     1
 90
        2
176
     1
 62
     7
176
     1
 90
        3
176
     1
 90
        0
176
     1
 90
        0
176
     1
290
     0
176
     1
 90
        1
176
     1
 40
0.0
176
     1
 90
        0
176
     1
290
     0
176
     1
290
     1
176
     1
290
     1
176
     1
290
     0
176
     1
290
     0
176
     1
290
     0
176
     1
290
     0
176
     1
290
     0
176
     1
290
     0
176
     1
 90
       50
176
     1
 40
0.0
176
     1
 40
1.0
176
     1
 90
        0
176
     1
 62
    18
420
        0
176
     1
 90
       50
176
     1
 90
        3
176
     1
 62
     5
420
      255
176
     1
290
     0
176
     1
 90
       50
176
     1
 90
       50
176
     1
 90
       50
176
     1
290
     0
176
     1
 90
       50
176
     1
 62
   256
176
     0
 40
1.0
176
     0
 90
        2
176
     1
  1
strokes_ogs.tif
176
     1
290
     0
176
     1
 40
1.0
176
     1
 40
1.0
176
     1
  0
VISUALSTYLE
  5
24DFF
102
{ACAD_REACTORS
330
241C1
102
}
330
241C1
100
AcDbVisualStyle
  2
JitterOff
 70
    20
177
     3
291
     1
 70
    58
 90
        2
176
     0
 90
        2
176
     0
 90
        0
176
     0
 90
        0
176
     0
 40
0.6
176
     0
 40
30.0
176
     0
 62
     7
420
 16777215
176
     0
 90
        1
176
     0
 90
        4
176
     0
 62
     7
176
     0
 62
   257
176
     0
 90
        1
176
     0
 90
        1
176
     0
 40
1.0
176
     0
 90
       10
176
     2
 62
     7
176
     0
 40
1.0
176
     0
 90
        1
176
     0
 90
        6
176
     0
 90
        2
176
     0
 62
     7
176
     0
 90
        5
176
     0
 90
        0
176
     0
 90
        0
176
     0
290
     0
176
     0
 90
        1
176
     0
 40
0.0
176
     0
 90
        0
176
     0
290
     0
176
     1
290
     1
176
     1
290
     1
176
     1
290
     0
176
     1
290
     0
176
     1
290
     0
176
     1
290
     0
176
     1
290
     0
176
     1
290
     0
176
     1
 90
       50
176
     1
 40
0.0
176
     1
 40
1.0
176
     1
 90
        0
176
     1
 62
    18
420
        0
176
     1
 90
       50
176
     1
 90
        3
176
     1
 62
     5
420
      255
176
     1
290
     0
176
     1
 90
       50
176
     1
 90
       50
176
     1
 90
       50
176
     1
290
     0
176
     1
 90
       50
176
     1
 62
   256
176
     0
 40
1.0
176
     0
 90
        2
176
     1
  1
strokes_ogs.tif
176
     1
290
     0
176
     1
 40
1.0
176
     1
 40
1.0
176
     1
  0
VISUALSTYLE
  5
241CF
102
{ACAD_REACTORS
330
241C1
102
}
330
241C1
100
AcDbVisualStyle
  2
Linepattern
 70
    14
177
     3
291
     1
 70
    58
 90
        2
176
     1
 90
        2
176
     1
 90
        0
176
     1
 90
        0
176
     1
 40
0.6
176
     1
 40
30.0
176
     1
 62
     7
420
 16777215
176
     1
 90
        1
176
     1
 90
        4
176
     1
 62
     7
176
     1
 62
   257
176
     1
 90
        7
176
     1
 90
        7
176
     1
 40
1.0
176
     1
 90
        8
176
     1
 62
     7
176
     1
 40
1.0
176
     1
 90
        1
176
     1
 90
        6
176
     1
 90
        2
176
     1
 62
     7
176
     1
 90
        5
176
     1
 90
        0
176
     1
 90
        0
176
     1
290
     0
176
     1
 90
        1
176
     1
 40
0.0
176
     1
 90
        0
176
     1
290
     0
176
     1
290
     1
176
     1
290
     1
176
     1
290
     0
176
     1
290
     0
176
     1
290
     0
176
     1
290
     0
176
     1
290
     0
176
     1
290
     0
176
     1
 90
       50
176
     1
 40
0.0
176
     1
 40
1.0
176
     1
 90
        0
176
     1
 62
    18
420
        0
176
     1
 90
       50
176
     1
 90
        3
176
     1
 62
     5
420
      255
176
     1
290
     0
176
     1
 90
       50
176
     1
 90
       50
176
     1
 90
       50
176
     1
290
     0
176
     1
 90
       50
176
     1
 62
   256
176
     0
 40
1.0
176
     0
 90
        2
176
     1
  1
strokes_ogs.tif
176
     1
290
     0
176
     1
 40
1.0
176
     1
 40
1.0
176
     1
  0
VISUALSTYLE
  5
24E00
102
{ACAD_REACTORS
330
241C1
102
}
330
241C1
100
AcDbVisualStyle
  2
OverhangOff
 70
    21
177
     3
291
     1
 70
    58
 90
        2
176
     0
 90
        2
176
     0
 90
        0
176
     0
 90
        0
176
     0
 40
0.6
176
     0
 40
30.0
176
     0
 62
     7
420
 16777215
176
     0
 90
        1
176
     0
 90
        4
176
     0
 62
     7
176
     0
 62
   257
176
     0
 90
        1
176
     0
 90
        1
176
     0
 40
1.0
176
     0
 90
        9
176
     2
 62
     7
176
     0
 40
1.0
176
     0
 90
        1
176
     0
 90
        6
176
     0
 90
        2
176
     0
 62
     7
176
     0
 90
        5
176
     0
 90
        0
176
     0
 90
        0
176
     0
290
     0
176
     0
 90
        1
176
     0
 40
0.0
176
     0
 90
        0
176
     0
290
     0
176
     1
290
     1
176
     1
290
     1
176
     1
290
     0
176
     1
290
     0
176
     1
290
     0
176
     1
290
     0
176
     1
290
     0
176
     1
290
     0
176
     1
 90
       50
176
     1
 40
0.0
176
     1
 40
1.0
176
     1
 90
        0
176
     1
 62
    18
420
        0
176
     1
 90
       50
176
     1
 90
        3
176
     1
 62
     5
420
      255
176
     1
290
     0
176
     1
 90
       50
176
     1
 90
       50
176
     1
 90
       50
176
     1
290
     0
176
     1
 90
       50
176
     1
 62
   256
176
     0
 40
1.0
176
     0
 90
        2
176
     1
  1
strokes_ogs.tif
176
     1
290
     0
176
     1
 40
1.0
176
     1
 40
1.0
176
     1
  0
VISUALSTYLE
  5
241CB
102
{ACAD_REACTORS
330
241C1
102
}
330
241C1
100
AcDbVisualStyle
  2
Realistic
 70
     8
177
     3
291
     0
 70
    58
 90
        2
176
     1
 90
        2
176
     1
 90
        0
176
     1
 90
        0
176
     1
 40
0.6
176
     1
 40
30.0
176
     1
 62
     7
420
 16777215
176
     1
 90
        1
176
     1
 90
        0
176
     1
 62
     7
176
     1
 62
   257
176
     1
 90
        1
176
     1
 90
        1
176
     1
 40
1.0
176
     1
 90
        8
176
     1
 62
     8
420
  7895160
176
     1
 40
1.0
176
     1
 90
        1
176
     1
 90
        6
176
     1
 90
        2
176
     1
 62
     7
176
     1
 90
        5
176
     1
 90
        0
176
     1
 90
        0
176
     1
290
     0
176
     1
 90
       13
176
     1
 40
0.0
176
     1
 90
        0
176
     1
290
     0
176
     1
290
     1
176
     1
290
     1
176
     1
290
     0
176
     1
290
     0
176
     1
290
     0
176
     1
290
     0
176
     1
290
     0
176
     1
290
     0
176
     1
 90
       50
176
     1
 40
0.0
176
     1
 40
1.0
176
     1
 90
        0
176
     1
 62
    18
420
        0
176
     1
 90
       50
176
     1
 90
        3
176
     1
 62
     5
420
      255
176
     1
290
     0
176
     1
 90
       50
176
     1
 90
       50
176
     1
 90
       50
176
     1
290
     0
176
     1
 90
       50
176
     1
 62
   256
176
     0
 40
1.0
176
     0
 90
        2
176
     1
  1
strokes_ogs.tif
176
     1
290
     0
176
     1
 40
1.0
176
     1
 40
1.0
176
     1
  0
VISUALSTYLE
  5
24DFE
102
{ACAD_REACTORS
330
241C1
102
}
330
241C1
100
AcDbVisualStyle
  2
Shaded
 70
    27
177
     3
291
     0
 70
    58
 90
        2
176
     1
 90
        2
176
     1
 90
        1
176
     1
 90
        2
176
     1
 40
0.6
176
     1
 40
30.0
176
     1
 62
     7
420
 16777215
176
     1
 90
        0
176
     1
 90
        4
176
     1
 62
     7
176
     1
 62
   257
176
     1
 90
        1
176
     1
 90
        1
176
     1
 40
1.0
176
     1
 90
        8
176
     1
 62
   257
176
     1
 40
1.0
176
     1
 90
        1
176
     1
 90
        6
176
     1
 90
        2
176
     1
 62
     8
420
  7895160
176
     1
 90
        3
176
     1
 90
        0
176
     1
 90
        0
176
     1
290
     0
176
     1
 90
        5
176
     1
 40
0.0
176
     1
 90
        0
176
     1
290
     0
176
     1
290
     1
176
     1
290
     1
176
     1
290
     0
176
     1
290
     0
176
     1
290
     0
176
     1
290
     0
176
     1
290
     0
176
     1
290
     0
176
     1
 90
       50
176
     1
 40
0.0
176
     1
 40
1.0
176
     1
 90
        0
176
     1
 62
    18
420
        0
176
     1
 90
       50
176
     1
 90
        3
176
     1
 62
     5
420
      255
176
     1
290
     0
176
     1
 90
       50
176
     1
 90
       50
176
     1
 90
       50
176
     1
290
     0
176
     1
 90
       50
176
     1
 62
   256
176
     0
 40
1.0
176
     0
 90
        2
176
     1
  1
strokes_ogs.tif
176
     1
290
     0
176
     1
 40
1.0
176
     1
 40
1.0
176
     1
  0
VISUALSTYLE
  5
24DFD
102
{ACAD_REACTORS
330
241C1
102
}
330
241C1
100
AcDbVisualStyle
  2
Shaded with edges
 70
    26
177
     3
291
     0
 70
    58
 90
        2
176
     1
 90
        2
176
     1
 90
        1
176
     1
 90
        2
176
     1
 40
0.6
176
     1
 40
30.0
176
     1
 62
     7
420
 16777215
176
     1
 90
        1
176
     1
 90
       10
176
     1
 62
     7
176
     1
 62
   257
176
     1
 90
        2
176
     1
 90
        1
176
     1
 40
1.0
176
     1
 90
        8
176
     1
 62
   257
176
     1
 40
1.0
176
     1
 90
        1
176
     1
 90
        6
176
     1
 90
        2
176
     1
 62
     7
176
     1
 90
        3
176
     1
 90
        0
176
     1
 90
        0
176
     1
290
     0
176
     1
 90
        5
176
     1
 40
0.0
176
     1
 90
        0
176
     1
290
     0
176
     1
290
     1
176
     1
290
     1
176
     1
290
     0
176
     1
290
     0
176
     1
290
     0
176
     1
290
     0
176
     1
290
     0
176
     1
290
     0
176
     1
 90
       50
176
     1
 40
0.0
176
     1
 40
1.0
176
     1
 90
        0
176
     1
 62
    18
420
        0
176
     1
 90
       50
176
     1
 90
        3
176
     1
 62
     5
420
      255
176
     1
290
     0
176
     1
 90
       50
176
     1
 90
       50
176
     1
 90
       50
176
     1
290
     0
176
     1
 90
       50
176
     1
 62
   256
176
     0
 40
1.0
176
     0
 90
        2
176
     1
  1
strokes_ogs.tif
176
     1
290
     0
176
     1
 40
1.0
176
     1
 40
1.0
176
     1
  0
VISUALSTYLE
  5
24DFA
102
{ACAD_REACTORS
330
241C1
102
}
330
241C1
100
AcDbVisualStyle
  2
Shades of Gray
 70
    23
177
     3
291
     0
 70
    58
 90
        2
176
     1
 90
        2
176
     1
 90
        3
176
     1
 90
        0
176
     1
 40
0.6
176
     1
 40
30.0
176
     1
 62
     7
420
 16777215
176
     1
 90
        2
176
     1
 90
        2
176
     1
 62
     7
176
     1
 62
     7
176
     1
 90
        1
176
     1
 90
        1
176
     1
 40
40.0
176
     1
 90
        8
176
     1
 62
     7
176
     1
 40
1.0
176
     1
 90
        1
176
     1
 90
        6
176
     1
 90
        2
176
     1
 62
     7
176
     1
 90
        3
176
     1
 90
        0
176
     1
 90
        0
176
     1
290
     0
176
     1
 90
        1
176
     1
 40
0.0
176
     1
 90
        0
176
     1
290
     0
176
     1
290
     1
176
     1
290
     1
176
     1
290
     0
176
     1
290
     0
176
     1
290
     0
176
     1
290
     0
176
     1
290
     0
176
     1
290
     0
176
     1
 90
       50
176
     1
 40
0.0
176
     1
 40
1.0
176
     1
 90
        0
176
     1
 62
    18
420
        0
176
     1
 90
       50
176
     1
 90
        3
176
     1
 62
     5
420
      255
176
     1
290
     0
176
     1
 90
       50
176
     1
 90
       50
176
     1
 90
       50
176
     1
290
     0
176
     1
 90
       50
176
     1
 62
   256
176
     0
 40
1.0
176
     0
 90
        2
176
     1
  1
strokes_ogs.tif
176
     1
290
     0
176
     1
 40
1.0
176
     1
 40
1.0
176
     1
  0
VISUALSTYLE
  5
24DFB
102
{ACAD_REACTORS
330
241C1
102
}
330
241C1
100
AcDbVisualStyle
  2
Sketchy
 70
    24
177
     3
291
     0
 70
    58
 90
        1
176
     1
 90
        2
176
     1
 90
        2
176
     1
 90
        0
176
     1
 40
0.6
176
     1
 40
30.0
176
     1
 62
     7
420
 16777215
176
     1
 90
        2
176
     1
 90
        2
176
     1
 62
     7
176
     1
 62
     7
176
     1
 90
        1
176
     1
 90
        1
176
     1
 40
40.0
176
     1
 90
       11
176
     1
 62
     7
176
     1
 40
1.0
176
     1
 90
        1
176
     1
 90
        6
176
     1
 90
        2
176
     1
 62
     7
176
     1
 90
        6
176
     1
 90
        0
176
     1
 90
        0
176
     1
290
     0
176
     1
 90
        1
176
     1
 40
0.0
176
     1
 90
        0
176
     1
290
     0
176
     1
290
     1
176
     1
290
     1
176
     1
290
     0
176
     1
290
     0
176
     1
290
     0
176
     1
290
     0
176
     1
290
     0
176
     1
290
     0
176
     1
 90
       50
176
     1
 40
0.0
176
     1
 40
1.0
176
     1
 90
        0
176
     1
 62
    18
420
        0
176
     1
 90
       50
176
     1
 90
        3
176
     1
 62
     5
420
      255
176
     1
290
     0
176
     1
 90
       50
176
     1
 90
       50
176
     1
 90
       50
176
     1
290
     0
176
     1
 90
       50
176
     1
 62
   256
176
     0
 40
1.0
176
     0
 90
        2
176
     1
  1
strokes_ogs.tif
176
     1
290
     0
176
     1
 40
1.0
176
     1
 40
1.0
176
     1
  0
VISUALSTYLE
  5
241CE
102
{ACAD_REACTORS
330
241C1
102
}
330
241C1
100
AcDbVisualStyle
  2
Thicken
 70
    13
177
     3
291
     1
 70
    58
 90
        2
176
     1
 90
        2
176
     1
 90
        0
176
     1
 90
        0
176
     1
 40
0.6
176
     1
 40
30.0
176
     1
 62
     7
420
 16777215
176
     1
 90
        1
176
     1
 90
        4
176
     1
 62
     7
176
     1
 62
   257
176
     1
 90
        1
176
     1
 90
        1
176
     1
 40
1.0
176
     1
 90
       12
176
     1
 62
     7
176
     1
 40
1.0
176
     1
 90
        1
176
     1
 90
        6
176
     1
 90
        2
176
     1
 62
     7
176
     1
 90
        5
176
     1
 90
        0
176
     1
 90
        0
176
     1
290
     0
176
     1
 90
        1
176
     1
 40
0.0
176
     1
 90
        0
176
     1
290
     0
176
     1
290
     1
176
     1
290
     1
176
     1
290
     0
176
     1
290
     0
176
     1
290
     0
176
     1
290
     0
176
     1
290
     0
176
     1
290
     0
176
     1
 90
       50
176
     1
 40
0.0
176
     1
 40
1.0
176
     1
 90
        0
176
     1
 62
    18
420
        0
176
     1
 90
       50
176
     1
 90
        3
176
     1
 62
     5
420
      255
176
     1
290
     0
176
     1
 90
       50
176
     1
 90
       50
176
     1
 90
       50
176
     1
290
     0
176
     1
 90
       50
176
     1
 62
   256
176
     0
 40
1.0
176
     0
 90
        2
176
     1
  1
strokes_ogs.tif
176
     1
290
     0
176
     1
 40
1.0
176
     1
 40
1.0
176
     1
  0
VISUALSTYLE
  5
24DF8
102
{ACAD_REACTORS
330
241C1
102
}
330
241C1
100
AcDbVisualStyle
  2
Wireframe
 70
     5
177
     3
291
     0
 70
    58
 90
        0
176
     1
 90
        2
176
     1
 90
        0
176
     1
 90
        0
176
     1
 40
0.6
176
     1
 40
30.0
176
     1
 62
     7
420
 16777215
176
     1
 90
        1
176
     1
 90
        4
176
     1
 62
     7
176
     1
 62
   257
176
     1
 90
        1
176
     1
 90
        1
176
     1
 40
1.0
176
     1
 90
        0
176
     1
 62
   257
176
     1
 40
1.0
176
     1
 90
        1
176
     1
 90
        6
176
     1
 90
        2
176
     1
 62
     7
176
     1
 90
        3
176
     1
 90
        0
176
     1
 90
        0
176
     1
290
     0
176
     1
 90
        1
176
     1
 40
0.0
176
     1
 90
        0
176
     1
290
     0
176
     1
290
     1
176
     1
290
     1
176
     1
290
     0
176
     1
290
     0
176
     1
290
     0
176
     1
290
     0
176
     1
290
     0
176
     1
290
     0
176
     1
 90
       50
176
     1
 40
0.0
176
     1
 40
1.0
176
     1
 90
        0
176
     1
 62
    18
420
        0
176
     1
 90
       50
176
     1
 90
        3
176
     1
 62
     5
420
      255
176
     1
290
     0
176
     1
 90
       50
176
     1
 90
       50
176
     1
 90
       50
176
     1
290
     0
176
     1
 90
       50
176
     1
 62
   256
176
     0
 40
1.0
176
     0
 90
        2
176
     1
  1
strokes_ogs.tif
176
     1
290
     0
176
     1
 40
1.0
176
     1
 40
1.0
176
     1
  0
VISUALSTYLE
  5
24DFC
102
{ACAD_REACTORS
330
241C1
102
}
330
241C1
100
AcDbVisualStyle
  2
X-Ray
 70
    25
177
     3
291
     0
 70
    58
 90
        2
176
     1
 90
        2
176
     1
 90
        1
176
     1
 90
        1
176
     1
 40
0.5
176
     1
 40
30.0
176
     1
 62
     7
420
 16777215
176
     1
 90
        1
176
     1
 90
        0
176
     1
 62
     7
176
     1
 62
   257
176
     1
 90
        1
176
     1
 90
        1
176
     1
 40
1.0
176
     1
 90
        8
176
     1
 62
     7
176
     1
 40
1.0
176
     1
 90
        1
176
     1
 90
        6
176
     1
 90
        2
176
     1
 62
     7
176
     1
 90
        3
176
     1
 90
        0
176
     1
 90
        0
176
     1
290
     0
176
     1
 90
       13
176
     1
 40
0.0
176
     1
 90
        0
176
     1
290
     0
176
     1
290
     1
176
     1
290
     1
176
     1
290
     0
176
     1
290
     0
176
     1
290
     0
176
     1
290
     0
176
     1
290
     0
176
     1
290
     0
176
     1
 90
       50
176
     1
 40
0.0
176
     1
 40
1.0
176
     1
 90
        0
176
     1
 62
    18
420
        0
176
     1
 90
       50
176
     1
 90
        3
176
     1
 62
     5
420
      255
176
     1
290
     0
176
     1
 90
       50
176
     1
 90
       50
176
     1
 90
       50
176
     1
290
     0
176
     1
 90
       50
176
     1
 62
   256
176
     0
 40
1.0
176
     0
 90
        2
176
     1
  1
strokes_ogs.tif
176
     1
290
     0
176
     1
 40
1.0
176
     1
 40
1.0
176
     1
  0
DICTIONARYVAR
  5
24DD1
102
{ACAD_REACTORS
330
30
102
}
330
30
100
DictionaryVariables
280
     0
  1
1:1
  0
DICTIONARYVAR
  5
24DCF
102
{ACAD_REACTORS
330
30
102
}
330
30
100
DictionaryVariables
280
     0
  1
Standard
  0
DICTIONARYVAR
  5
E5ED
102
{ACAD_REACTORS
330
30
102
}
330
30
100
DictionaryVariables
280
     0
  1
Standard
  0
DICTIONARYVAR
  5
284E3
102
{ACAD_REACTORS
330
30
102
}
330
30
100
DictionaryVariables
280
     0
  1
Metric50
  0
DICTIONARYVAR
  5
284E4
102
{ACAD_REACTORS
330
30
102
}
330
30
100
DictionaryVariables
280
     0
  1
Metric50
  0
DICTIONARYVAR
  5
31
102
{ACAD_REACTORS
330
30
102
}
330
30
100
DictionaryVariables
280
     0
  1
1
  0
DICTIONARYVAR
  5
2613C
102
{ACAD_REACTORS
330
30
102
}
330
30
100
DictionaryVariables
280
     0
  1
1
  0
DICTIONARYVAR
  5
2613D
102
{ACAD_REACTORS
330
30
102
}
330
30
100
DictionaryVariables
280
     0
  1
15
  0
DICTIONARYVAR
  5
24DD2
102
{ACAD_REACTORS
330
30
102
}
330
30
100
DictionaryVariables
280
     0
  1
0
  0
DICTIONARYVAR
  5
24DD0
102
{ACAD_REACTORS
330
30
102
}
330
30
100
DictionaryVariables
280
     0
  1
0
  0
DICTIONARYVAR
  5
284E5
102
{ACAD_REACTORS
330
30
102
}
330
30
100
DictionaryVariables
280
     0
  1
1
  0
DICTIONARYVAR
  5
28D1D
102
{ACAD_REACTORS
330
30
102
}
330
30
100
DictionaryVariables
280
     0
  1
0
  0
ACAD_PROXY_OBJECT
  5
28597
102
{ACAD_REACTORS
330
43
102
}
330
43
100
AcDbProxyObject
 90
      499
 91
      519
 71
    31
 97
      105
 70
     0
161
                84
310
90100057356C1DC2406AA0
  0
DICTIONARY
  5
307C
102
{ACAD_REACTORS
330
43
102
}
330
43
100
AcDbDictionary
281
     1
  3
ISO
350
2859D
  0
XRECORD
  5
E5D6
102
{ACAD_REACTORS
330
43
102
}
330
43
100
AcDbXrecord
280
     1
 90
-1023410169
  0
ACAD_PROXY_OBJECT
  5
28578
330
28575
100
AcDbProxyObject
 90
      499
 91
      509
 71
    31
 97
      105
 70
     0
162
               234
311
43904010C01340114014C016401340108013C0130014C012401680114000
161
                34
310
0001014200
330
28575
 94
        0
  0
ACAD_PROXY_OBJECT
  5
28586
330
28575
100
AcDbProxyObject
 90
      499
 91
      552
 71
    31
 97
      105
 70
     0
162
               196
311
421040134010C01540148014C015001100103490053004F000
161
                32
310
00010101
330
28575
 94
        0
  0
ACAD_PROXY_OBJECT
  5
28589
330
28575
100
AcDbProxyObject
 90
      499
 91
      552
 71
    31
 97
      105
 70
     0
162
               276
311
431040104010C013C01340140011001180138010401340114010443004F004D0050000
161
                32
310
00010101
330
28575
 94
        0
  0
ACAD_PROXY_OBJECT
  5
2858A
330
28575
100
AcDbProxyObject
 90
      499
 91
      552
 71
    31
 97
      105
 70
     0
162
               372
311
4390401040118013C01300110011401480110011801380104013401140108430061007200740065006C006C0061000
161
                32
310
00010101
330
28575
 94
        0
  0
ACAD_PROXY_OBJECT
  5
2858B
330
28575
100
AcDbProxyObject
 90
      499
 91
      552
 71
    31
 97
      105
 70
     0
162
               260
311
431040104010401380138013C01100118013801040134011401035F00410056000
161
                32
310
00010101
330
28575
 94
        0
  0
ACAD_PROXY_OBJECT
  5
2858C
330
28575
100
AcDbProxyObject
 90
      499
 91
      552
 71
    31
 97
      105
 70
     0
162
               900
311
439040104010C013C01340140015801240114015C01300124014C0150012941006C0074006F000A0041006E0074006500720069006F00720065000A00440065007300740072006F000A00530069006E0069007300740072006F000A0042006100730073006F000A0041007500730031000
161
                32
310
00010101
330
28575
 94
        0
  0
ACAD_PROXY_OBJECT
  5
2858D
330
28575
100
AcDbProxyObject
 90
      499
 91
      509
 71
    31
 97
      105
 70
     0
162
               234
311
439040134014C014C0150014801040130015C01040164014C013C0138000
161
                26
310
00010180
330
28575
 94
        0
  0
ACAD_PROXY_OBJECT
  5
28592
330
28575
100
AcDbProxyObject
 90
      499
 91
      554
 71
    31
 97
      105
 70
     0
161
                32
310
00010000
330
28575
340
2858F
330
28593
330
2858F
 94
        0
  0
ACAD_PROXY_OBJECT
  5
28593
330
28575
100
AcDbProxyObject
 90
      499
 91
      556
 71
    31
 97
      105
 70
     0
162
               314
311
44D1800DC00D800C800B4014801140150012400800104014C0140012401480104013801500124000
161
                80
310
00010141401550055400
330
28575
330
28592
330
0
 94
        0
  0
ACAD_PROXY_OBJECT
  5
28594
330
28575
100
AcDbProxyObject
 90
      499
 91
      557
 71
    31
 97
      105
 70
     0
161
               178
310
000100AAAAAAB279D1E1A130D613A0A12D339C4BA0AB80
330
28575
330
28593
 94
        0
  0
ACAD_PROXY_OBJECT
  5
28595
330
28575
100
AcDbProxyObject
 90
      499
 91
      558
 71
    31
 97
      105
 70
     0
161
               108
310
000190140A000000000000AAAAA0
330
28575
330
28596
330
28596
330
28596
330
28596
330
28596
330
0
 94
        0
  0
ACAD_PROXY_OBJECT
  5
28596
330
28575
100
AcDbProxyObject
 90
      499
 91
      559
 71
    31
 97
      105
 70
     0
161
                51
310
00010000AAAA80
330
28575
330
28595
330
28593
 94
        0
  0
ACAD_PROXY_OBJECT
  5
287DD
330
28575
100
AcDbProxyObject
 90
      499
 91
      509
 71
    31
 97
      105
 70
     0
162
               234
311
4394001B001BC01D0014C018C018401B00194013001BC018C018401B0000
161
                26
310
00010180
330
28575
 94
        0
  0
DICTIONARY
  5
28571
102
{ACAD_REACTORS
330
3F
102
}
330
3F
100
AcDbDictionary
281
     1
  3
DWGSETTINGS
350
28572
  3
TRANSSETTINGS
350
28573
  0
ACAD_PROXY_OBJECT
  5
285B7
102
{ACAD_REACTORS
330
3F
102
}
330
3F
100
AcDbProxyObject
 90
      499
 91
      521
 71
    31
 97
      105
 70
     0
162
             15824
311
404C0010441004D005F0030009013100411040134017C00C402404C8010441004D005F0032009013300411040134017C00CC02404D0010441004D005F0034009013500411040134017C00D402404D8010441004D005F0036009013700411040134017C00DC02404E0010441004D005F0038009013900411040134017C00E40
311
2408C80104010541004D005F003100300090234004100415040134017C00C400C402409240140010541004D005F003100320090230004E00415040134017C00C0013802408C40138010541004D005F0031004E0090232004E00415040134017C00C8013802408CC0138010541004D005F0033004E0090234004E0041504013
311
4017C00D0013802408D40138010541004D005F0035004E0090236004E00415040134017C00D8013802408DC0138010541004D005F0037004E0090238004E00415040134017C00E0013802408E40138010541004D005F0039004E00903320041004E00419040134017C00C400C001380240CD001040138010641004D005F003
311
10031004E00903490050004E00419040134017C00C400C80138024112C013001240138010541004D005F0043004C0090449004E0046004F00421040134017C01400104014801140118024154801040120013400D4010641004D005F0042004F0052009045600490045005700421040134017C015801240114015C014C02419
311
0801140120012401380110010641004D005F0049004E00560090554005200410049004C00415040134017C015001480240D2001240110010641004D005F00480049004400903560049005300419040134017C01580124014C024194001040148011001240134010941004D005F00500041005200440049004D009065200450
311
04600440049004D00425040134017C01480114011801100124013402411080120013801580101390041508012001380158014C010642004500480049004E00440041108013C014800C801055200410048004D00350041108013C014800CC01055200410048004D00350041108013C014800D401055200410048004D0035004
311
110C0104013000C8010134004110C0104013000CC010134004110C0104013000D4010134004110C0104013000DC010134004110C011401380138010137004110C01140138015C010137004110C01300124013801044B004C0049004E004110C013C013800C4010130004110C013C013800C8010131004110C013C013800CC0
311
10132004110C013C013800D00101320041110011401500104010134004111001240104011C010135004111001240130012401013500411100124013401400106500041005200440049004D00411100124013401480106520045004600440049004D00411180114013401380101380041518011401340140013801013800415
311
1801140134014C01400102340041004151801140134014C015001023400410041518011401340158013801013200415180114013401580150010132004112001040150010C0101380041120012401100138010133004112001240110015C01013300411200130012401380101340041120013C010C01380101370041120013
311
C010C015C010137004112401380118013C010449004E0046004F00411300114010401100101350041938017C0108012001380158010239004E0041938017C010C013C013800C4010230004E0041938017C010C013C013800C8010231004E0041938017C010C013C013800CC010232004E0041938017C010C013C013800D001
311
0232004E0041938017C010C011401380138010237004E0041938017C010C01140138015C010237004E0041938017C0110012401300124010235004E0041938017C012001040150010C010238004E0041938017C0120012401100138010233004E0041938017C012001240110015C010233004E0041938017C0130011401040
311
110010235004E0041938017C0138011C012401400103490050004E0041938017C01400120010401380103340041004E0041938017C0150010C013C0138010230004E0041938017C0150012001300124010234004E0041938017C0150013001140138010230004E0041938017C01580140013001240103320041004E0041138
311
011C01240140010249005000411400104013000C801055200410048004D003500411400104013000CC01055200410048004D003500411400104013000D401055200410048004D0035004114001200104013801023400410041140013C014C01380101350041148010C011C01380101370041148010C011C015C01013700411
311
4C01080148012C010134004114C0114010C0150010134004114C0164010800CC0101350041134014C016401340101350041150010C013C0138010130004115001200130012401013400411500124015000C801055200410048004D003500411500124015000CC01055200410048004D003500411500124015000D401055200
311
410048004D0035004115001300114013801013000415500148010401240130010554005200410049004C004115001480130012401013400411500160015000C401013600411500160015000C801013600411500160015000CC01013600411500160015000D401013600411500160015000DC010136004115801240114015C0
311
1045600490045005700411580114011001200103480049004400411580114011001580103560049005300411580140013001240102320041004116801240168010401013400404FC02
161
              8964
310
4210249201C00030C013244203800030C013244201400030C013244201800030C0119A00C00030C0119A00C00030C0119A00800030C0123A01000030C0119A00400030C0119A3F400030C0241201C00030C0132A00C00030C0119A01C00030C013240A01C00030C0132A03800030C0132A01400030C0132A01800030C0119A
310
00C00030C0119A00C00030C0119A00800030C0123A01000030C0119A00400030C0119A3F400030C0241201C00030C0132A00C00030C0119A01C00030C013240A00400030C011942601000030C011942E01C00030C013242600400030C011942E3F400030C0243600C00030C011942601C00030C011942601C00030C0132426
310
00C00030C011942601000030C0119425538000000C0003FFFFFFFE8000000C0003FFFFFFFE8010000C3004668020000C30048E8000000C0003FFFFFFFE8000000C0003FFFFFFFE8020000C30048E8070000C3004CA81E0000C30051A8000000C0003FFFFFFFE8000000C0003FFFFFFFE8000000C0003FFFFFFFE8000000C00
310
03FFFFFFFD038000000C0003FFFFFFFD038000000C0003FFFFFFFD038000000C0003FFFFFFFD038000000C0003FFFFFFFE8000000C0003FFFFFFFE8000000C0003FFFFFFFE8000000C0003FFFFFFFE8000000C0003FFFFFFFE8000000C0003FFFFFFFE8030000C3003FFFFFFFE8000000C0003FFFFFFFE8030000C30046680
310
00000C0003FFFFFFFE8030000C3004668000000C0003FFFFFFFD018000000C0003FFFFFFFD038000000C0003FFFFFFFD038000000C0003FFFFFFFD018000000C0003FFFFFFFE8000000C0003FFFFFFFE8000000C0003FFFFFFFE8030000C3003FFFFFFFE8000000C0003FFFFFFFE8000000C0003FFFFFFFD038000000C0003
310
FFFFFFFD038000000C0003FFFFFFFD038000000C0003FFFFFFFD038000000C0003FFFFFFFE8000000C0003FFFFFFFE8000000C0003FFFFFFFE8000000C0003FFFFFFFD018000000C0003FFFFFFFD038000000C0003FFFFFFFD038000000C0003FFFFFFFE8000000C0003FFFFFFFE8000000C0003FFFFFFFE8000000C0003FF
310
FFFFFD038000000C0003FFFFFFFD018000000C0003FFFFFFFD038000000C0003FFFFFFFE8000000C0003FFFFFFFE8010000C3003FFFFFFFE8020000C3003FFFFFFFE8070000C3003FFFFFFFE8000000C0003FFFFFFFE8000000C0003FFFFFFFE8000000C0003FFFFFFFE8000000C0003FFFFFFFE8000000C0003FFFFFFFD01
310
8000000C0003FFFFFFFD018020000C30048E8020000C3003FFFFFFFE8000000C0003FFFFFFFD038000000C0003FFFFFFFD018010000C3004668020000C30048E8000000C0003FFFFFFFE8000000C0003FFFFFFFD038000000C0003FFFFFFFE8000000C0003FFFFFFFD018030000C3004668030000C3004668000000C0003FF
310
FFFFFE8070000C3004CA81E0000C30051A8000000C0003FFFFFFFE8000000C0003FFFFFFFD028000000C0003FFFFFFFD028000000C0003FFFFFFFE8000000C0003FFFFFFFD01AAA3F400030C010A4393241532409234794641D3241119405197F64191940D19802000
340
16
340
16
340
16
340
285B8
340
16
340
16
340
16
340
285B9
340
16
340
16
340
285B9
340
285BA
340
16
340
16
340
16
340
16
340
285B8
340
16
340
16
340
16
340
285B9
340
16
340
16
340
285B9
340
285BA
340
16
340
285BB
340
16
340
16
340
16
340
16
340
16
340
285B8
340
16
340
16
340
16
340
15
340
15
340
15
340
15
340
15
340
15
340
15
340
15
340
15
340
285BC
340
15
340
15
340
15
340
15
340
15
340
15
340
16
340
15
340
15
340
15
340
15
340
15
340
15
340
16
340
15
340
15
340
15
340
15
340
285BD
340
15
340
15
340
285BC
340
15
340
15
340
15
340
15
340
15
340
15
340
15
340
15
340
285BC
340
15
340
15
340
15
340
285BD
340
15
340
15
340
15
340
15
340
15
340
15
340
15
340
15
340
15
340
16
340
16
340
16
340
15
340
15
340
285BC
340
15
340
15
340
15
340
15
340
15
340
15
340
15
340
15
340
15
340
15
340
15
340
15
340
15
340
15
340
15
340
15
340
15
340
15
340
15
340
15
340
15
340
15
340
285C0
 94
        0
  0
ACAD_PROXY_OBJECT
  5
26FAC
102
{ACAD_REACTORS
330
26FAB
102
}
330
26FAB
100
AcDbProxyObject
 90
      499
 91
      615
 71
    31
 97
      105
 70
     0
161
                60
310
40A406AAA43902E0
330
26FAE
360
0
360
27800
360
27824
 94
        0
  0
DICTIONARY
  5
2903F
330
E57B
100
AcDbDictionary
280
     1
281
     1
  3
ACAD_ROUNDTRIP_2008_TABLESTYLE_CELLSTYLEMAP
360
29040
  0
ACAD_PROXY_OBJECT
  5
2859D
102
{ACAD_REACTORS
330
307C
102
}
330
307C
100
AcDbProxyObject
 90
      499
 91
      576
 71
    31
 97
      105
 70
     0
162
              3904
311
40D24014C013C0242D0401B4019001D001140190019C0194014C01D00190010E410063006D005300750072006600540065007800740053007400640042504018C01B40118010C0118014C01D00190010D410063006D00570065006C00640069006E00670053007400640042104018C01B401240190014C01D00190010B4100
311
63006D0044006100740075006D0053007400640042504018C01B40108013C0134014C01D00190011041006D0064007400440065007400610069006C00530079006D005300740064004450401B4019001D0014C0194018C01D001A401BC01B8014C01E401B4014C01D00190011141006D0064007400430065006E0074006500
311
72004C0069006E0065005300740064004450401B4019001D0015001A001C8019401840190013001A401B80194014C01D00190010B41006D00640074004E006F007400650053007400640042D04018C01B40150018401C0019401C8014C01D00190010D41006D006400740041006E00560069006500770053007400640042D0
311
4018C010401B4019C0130018401E4014C01D00190010B4100630041006D006700440069006D0053007400640044504018C010401B4019C012001BC01B00194010C01A0018401C801D0014C01D00190010D4100630041006D0067005400690074006C006500530074006400
161
               737
310
70800000000000004408030000C30040540600800030C02000000300000000000000000C40C95224812028120281202812028120281202812028120281202812028120281202812028120281202812028120281203204809FFFE7FFF80
340
ED6
360
2859E
360
2859F
360
285A0
360
285A1
360
285A2
360
285A3
360
285A4
360
285A5
360
285A6
360
285A7
360
285A8
360
285A9
360
285AA
360
285AB
360
285AC
360
285AD
360
285B6
360
285C1
340
19282
340
0
340
15
340
15
 94
        0
  0
ACAD_PROXY_OBJECT
  5
28572
102
{ACAD_REACTORS
330
28571
102
}
330
28571
100
AcDbProxyObject
 90
      499
 91
      518
 71
    31
 97
      105
 70
     0
162
              4060
311
42D10015C011C014C01140150015001240138011C014C0109430041004E00470041005200520041005900420CC00C001F000D000D401F000D800C00106430045004E0041004E004700424D000D401F000E400C001F000C400CC00D40106430045004E0044004900410041D0C01140138011001240104014C0108310030007C
311
00320030007C003300300041D0C0114013801100124014C01500106430045004E004C0045004E004190C01140138013C01180118010E4300480041004D00460045005200440049004D004D004F00440045004550C0120010401340118011401480110012401340134013C01100114011001140118010401540130015001094
311
3004C0049004E0041005200520041005900420C400C001F000C800C001F000CC00C0010843004C0049004E004500540059005000415600130012401380114010944005700470055005300430041004C00450041D300104014C0150013C01080128010532003100410032003000421340104012C0114015801240114015C010
311
650005300430041004C00450041948011401580124014C0124010130004154C010C010401300114010331003A00340042550012401340114014C01500104013401400107560045005200530049004F004E00414C400D400B800C000C001107B00440057004700530045005400540049004E004700530045004E0044007D000
161
               572
310
40682A0A940000000000000488082A5000000000000004202500000000000001220250000000000000122027F27F20A82A50A0A9FA040C00800010541528373E55845DCF1CD05050
  0
ACAD_PROXY_OBJECT
  5
28573
102
{ACAD_REACTORS
330
28571
102
}
330
28571
100
AcDbProxyObject
 90
      499
 91
      518
 71
    31
 97
      105
 70
     0
162
              1382
311
43550014801040138014C014C01140150015001240138011C014C0112440052004100570049004E0047005400520041004E0053004C004100540049004F004E004353C01480124011C012401380104013001300164017C013C0138010A53004F0055005200430045004C0041004E00470040D2401500104010955005000520
311
0450053004500520056004500441EC0110015C011C014C01140150015001240138011C014C01140138011001F400
161
               126
310
4060C00800041801000020A0C0080000
  0
ACAD_PROXY_OBJECT
  5
27800
330
26FAC
100
AcDbProxyObject
 90
      499
 91
      616
 71
    31
 97
      105
 70
     0
162
              1460
311
4251801A401B001B0010401B8019C01B00194010B4900740065006D00530070006100630069006E0067004152401D0019401B401CC010C4C006500760065006C00530070006100630069006E00670041930019401D8019401B001CC010C52006F00770045006C00650076006100740069006F006E004294801BC01DC014C01
311
C00184018C01A401B8019C010452006F0077007300419480184019001A401D401CC010A5300740061007200740041006E0067006C0065000
161
               729
310
40A4350340FC81C85481202940305A88A9F642328120480A500C16A22A7D9084A05202AD20520280A50D202AD20320280A51480A02941522620000120C481480AB480C80A0294124024781BDA29E8120480A50678CAA94BD3507A000
330
26FAC
360
27801
360
27805
360
27806
360
27807
360
27802
360
27803
360
27804
330
0
330
0
330
0
330
0
330
0
330
0
330
0
330
0
330
0
330
0
330
0
330
0
330
0
330
0
330
0
330
0
330
0
330
0
330
0
330
0
 94
        0
  0
ACAD_PROXY_OBJECT
  5
27824
330
26FAC
100
AcDbProxyObject
 90
      499
 91
      616
 71
    31
 97
      105
 70
     0
162
              1460
311
4251801A401B001B0010401B8019C01B00194010B4900740065006D00530070006100630069006E0067004152401D0019401B401CC010C4C006500760065006C00530070006100630069006E00670041930019401D8019401B001CC010C52006F00770045006C00650076006100740069006F006E004294801BC01DC014C01
311
C00184018C01A401B8019C010452006F0077007300419480184019001A401D401CC010A5300740061007200740041006E0067006C0065000
161
               729
310
40A4390340FC81C85481202940305A88A9F642328120480A500C16A22A7D9084A05202AD20520280A50D202AD20320280A51480A02941C01E20000100CC81480AB480C80A029406C5BC4B8933EA68120480A5062062A94BD3507A000
330
26FAC
360
27825
360
27829
360
2782A
360
2782B
360
27826
360
27827
360
27828
330
0
330
0
330
0
330
0
330
0
330
0
330
0
330
0
330
0
330
0
330
0
330
0
330
0
330
0
330
0
330
0
330
0
330
0
330
0
330
0
 94
        0
  0
CELLSTYLEMAP
  5
29040
102
{ACAD_REACTORS
330
2903F
102
}
330
2903F
100
AcDbCellStyleMap
 90
        3
300
CELLSTYLE
  1
TABLEFORMAT_BEGIN
 90
        5
170
     1
 91
        0
 92
    32768
 62
   257
 93
        1
300
CONTENTFORMAT
  1
CONTENTFORMAT_BEGIN
 90
        0
 91
        0
 92
        4
 93
        0
300

 40
0.0
140
1.0
 94
        5
 62
     0
340
11
144
6.0
309
CONTENTFORMAT_END
171
     1
301
MARGIN
  1
CELLMARGIN_BEGIN
 40
1.5
 40
1.5
 40
1.5
 40
1.5
 40
0.18
 40
0.18
309
CELLMARGIN_END
 94
        6
 95
        1
302
GRIDFORMAT
  1
GRIDFORMAT_BEGIN
 90
        0
 91
        1
 62
     0
 92
       -2
340
0
 93
        0
 40
0.045
309
GRIDFORMAT_END
 95
        2
302
GRIDFORMAT
  1
GRIDFORMAT_BEGIN
 90
        0
 91
        1
 62
     0
 92
       -2
340
0
 93
        0
 40
0.045
309
GRIDFORMAT_END
 95
        4
302
GRIDFORMAT
  1
GRIDFORMAT_BEGIN
 90
        0
 91
        1
 62
     0
 92
       -2
340
0
 93
        0
 40
0.045
309
GRIDFORMAT_END
 95
        8
302
GRIDFORMAT
  1
GRIDFORMAT_BEGIN
 90
        0
 91
        1
 62
     0
 92
       -2
340
0
 93
        0
 40
0.045
309
GRIDFORMAT_END
 95
       16
302
GRIDFORMAT
  1
GRIDFORMAT_BEGIN
 90
        0
 91
        1
 62
     0
 92
       -2
340
0
 93
        0
 40
0.045
309
GRIDFORMAT_END
 95
       32
302
GRIDFORMAT
  1
GRIDFORMAT_BEGIN
 90
        0
 91
        1
 62
     0
 92
       -2
340
0
 93
        0
 40
0.045
309
GRIDFORMAT_END
309
TABLEFORMAT_END
  1
CELLSTYLE_BEGIN
 90
        1
 91
        1
300
_TITLE
309
CELLSTYLE_END
300
CELLSTYLE
  1
TABLEFORMAT_BEGIN
 90
        5
170
     1
 91
        0
 92
        0
 62
   257
 93
        1
300
CONTENTFORMAT
  1
CONTENTFORMAT_BEGIN
 90
        0
 91
        0
 92
        4
 93
        0
300

 40
0.0
140
1.0
 94
        5
 62
     0
340
11
144
4.5
309
CONTENTFORMAT_END
171
     1
301
MARGIN
  1
CELLMARGIN_BEGIN
 40
1.5
 40
1.5
 40
1.5
 40
1.5
 40
0.18
 40
0.18
309
CELLMARGIN_END
 94
        6
 95
        1
302
GRIDFORMAT
  1
GRIDFORMAT_BEGIN
 90
        0
 91
        1
 62
     0
 92
       -2
340
0
 93
        0
 40
0.045
309
GRIDFORMAT_END
 95
        2
302
GRIDFORMAT
  1
GRIDFORMAT_BEGIN
 90
        0
 91
        1
 62
     0
 92
       -2
340
0
 93
        0
 40
0.045
309
GRIDFORMAT_END
 95
        4
302
GRIDFORMAT
  1
GRIDFORMAT_BEGIN
 90
        0
 91
        1
 62
     0
 92
       -2
340
0
 93
        0
 40
0.045
309
GRIDFORMAT_END
 95
        8
302
GRIDFORMAT
  1
GRIDFORMAT_BEGIN
 90
        0
 91
        1
 62
     0
 92
       -2
340
0
 93
        0
 40
0.045
309
GRIDFORMAT_END
 95
       16
302
GRIDFORMAT
  1
GRIDFORMAT_BEGIN
 90
        0
 91
        1
 62
     0
 92
       -2
340
0
 93
        0
 40
0.045
309
GRIDFORMAT_END
 95
       32
302
GRIDFORMAT
  1
GRIDFORMAT_BEGIN
 90
        0
 91
        1
 62
     0
 92
       -2
340
0
 93
        0
 40
0.045
309
GRIDFORMAT_END
309
TABLEFORMAT_END
  1
CELLSTYLE_BEGIN
 90
        2
 91
        1
300
_HEADER
309
CELLSTYLE_END
300
CELLSTYLE
  1
TABLEFORMAT_BEGIN
 90
        5
170
     1
 91
        0
 92
        0
 62
   257
 93
        1
300
CONTENTFORMAT
  1
CONTENTFORMAT_BEGIN
 90
        0
 91
        0
 92
        4
 93
        0
300

 40
0.0
140
1.0
 94
        2
 62
     0
340
11
144
4.5
309
CONTENTFORMAT_END
171
     1
301
MARGIN
  1
CELLMARGIN_BEGIN
 40
1.5
 40
1.5
 40
1.5
 40
1.5
 40
0.18
 40
0.18
309
CELLMARGIN_END
 94
        6
 95
        1
302
GRIDFORMAT
  1
GRIDFORMAT_BEGIN
 90
        0
 91
        1
 62
     0
 92
       -2
340
0
 93
        0
 40
0.045
309
GRIDFORMAT_END
 95
        2
302
GRIDFORMAT
  1
GRIDFORMAT_BEGIN
 90
        0
 91
        1
 62
     0
 92
       -2
340
0
 93
        0
 40
0.045
309
GRIDFORMAT_END
 95
        4
302
GRIDFORMAT
  1
GRIDFORMAT_BEGIN
 90
        0
 91
        1
 62
     0
 92
       -2
340
0
 93
        0
 40
0.045
309
GRIDFORMAT_END
 95
        8
302
GRIDFORMAT
  1
GRIDFORMAT_BEGIN
 90
        0
 91
        1
 62
     0
 92
       -2
340
0
 93
        0
 40
0.045
309
GRIDFORMAT_END
 95
       16
302
GRIDFORMAT
  1
GRIDFORMAT_BEGIN
 90
        0
 91
        1
 62
     0
 92
       -2
340
0
 93
        0
 40
0.045
309
GRIDFORMAT_END
 95
       32
302
GRIDFORMAT
  1
GRIDFORMAT_BEGIN
 90
        0
 91
        1
 62
     0
 92
       -2
340
0
 93
        0
 40
0.045
309
GRIDFORMAT_END
309
TABLEFORMAT_END
  1
CELLSTYLE_BEGIN
 90
        3
 91
        2
300
_DATA
309
CELLSTYLE_END
  0
ACAD_PROXY_OBJECT
  5
2859E
330
2859D
100
AcDbProxyObject
 90
      499
 91
      603
 71
    31
 97
      105
 70
     0
161
               249
310
7080000000000000C400000000000000110200800030C0200C00030C012AFB80
  0
ACAD_PROXY_OBJECT
  5
2859F
330
2859D
100
AcDbProxyObject
 90
      499
 91
      606
 71
    31
 97
      105
 70
     0
162
              2608
311
415480184008000D400C001055200610020003200350041D480184008000C400C800B800D4010652006100200036002E003300419480184008000CC00B800C8010652006100200031002E003600419480184008000C000B800E0010652006100200030002E003400419480184008000C000B800C8010652006100200030002
311
E00310041D480184008000C000B800C000D4010852006100200030002E00300032003500415480184008000D400C001055200610020003200350041D480184008000C400C800B800D4010652006100200036002E003300419480184008000CC00B800C8010652006100200031002E003600419480184008000C000B800E001
311
0652006100200030002E003400419480184008000C000B800C8010652006100200030002E00310041D480184008000C000B800C000D4010852006100200030002E00300032003500
161
               517
310
7080000000000000C400000000000000110200800030C0200C00030C012AFD41D01405014050140501E83C80A0481A0882A0C86219555400000000000002205210
  0
ACAD_PROXY_OBJECT
  5
285A0
330
2859D
100
AcDbProxyObject
 90
      499
 91
      623
 71
    31
 97
      105
 70
     0
161
               695
310
7080000000000000C400000000000000110200800030C0200C00030C012AFA1E80A0280A0280A0280A0280A0280A0280A0280A1A80A0280A0280A0280A0280A0280A028096000000000000002000000000000000881484
340
285C3
 94
        0
  0
ACAD_PROXY_OBJECT
  5
285A1
330
2859D
100
AcDbProxyObject
 90
      499
 91
      580
 71
    31
 97
      105
 70
     0
161
               732
310
7080000000000000C400000000000000110200800030C0200C00030C012AFD0CCCCCCCCCCCF4CFC333333333333D33FA4480A0280A0280A0280A0280A0280A0280A0280A0280A0280A0280A0280A0280A0280A0280A0280A0280A020
340
285C4
 94
        0
  0
ACAD_PROXY_OBJECT
  5
285A2
330
2859D
100
AcDbProxyObject
 90
      499
 91
      624
 71
    31
 97
      105
 70
     0
161
               323
310
7080000000000000C400000000000000110200800030C0200C00030C012AFA42000000000000011020
340
285C5
 94
        0
  0
ACAD_PROXY_OBJECT
  5
285A3
330
2859D
100
AcDbProxyObject
 90
      499
 91
      582
 71
    31
 97
      105
 70
     0
161
               492
310
7080000000000000C400000000000000110200800030C0200C00030C012AFC521D4454FB21E93F00000000000002102800000000000008408020000C3000
340
285C6
340
285C5
 94
        0
  0
ACAD_PROXY_OBJECT
  5
285A4
330
2859D
100
AcDbProxyObject
 90
      499
 91
      583
 71
    31
 97
      105
 70
     0
162
             24716
311
41124015001140134010450006F0073002E004CD1C01140138015001480104010C013C00B001240150010400B000C000B0014001BC01CC00B800B0011C011401380150014801040150016000B0009401CC00B000A0011C011401380134014C011C0080019C019401B8019001DC019C008000C800C800C800A4029035100540
311
0590040D4401D003800132470045004E0054005200410043004F002C004900540041002C0030002C0051007400E0002C00470045004E00540052004100540058002C00250073002C002800470045004E004D00530047002000670065006E0064007700670020003200320033002900A4113801040134011401044E006F006D
311
0065004CD1C01140138015001480104010C013C00B001240150010400B000C000B0013801BC01B4019400B0011C011401380150014801040150016000B0009401CC00B000A0011C011401380134014C011C0080019C019401B8019001DC019C008000C800C800D800A4012C3D004900460028004900530042004C0041004E0
311
04B00280050004100520054003A004E0041004D00450029002C0042004C004F0043004B003A004E0041004D0045002C0050004100520054003A004E0041004D00450029009054400450053004300520042D10019401CC018C01C801A401E801A401BC01B80194013A470045004E0054005200410043004F002C00490054004
311
1002C0030002C004400650073006300720069007A0069006F006E0065002C00470045004E00540052004100540058002C00250073002C002800470045004E004D00530047002000670065006E0064007700670020003200310037002900A4214C015001040138011001040148011001085300740061006E006400610072006
311
4004DD1C01140138015001480104010C013C00B001240150010400B000C000B0014C01D0018401B80190018401C8019000B0011C011401380150014801040150016000B0009401CC00B000A0011C011401380134014C011C0080019C019401B8019001DC019C008000C800C400E000A4029084D00410054004500520049004
311
1004C0042534018401D0019401C801A4018401B001940138470045004E0054005200410043004F002C004900540041002C0030002C004D006100740065007200690061006C0065002C00470045004E00540052004100540058002C00250073002C002800470045004E004D00530047002000670065006E0064007700670020
311
003200320031002900A41138013C0150011401044E006F00740061004CD1C01140138015001480104010C013C00B001240150010400B000C000B0013801BC01D0018400B0011C011401380150014801040150016000B0009401CC00B000A0011C011401380134014C011C0080019C019401B8019001DC019C008000C800C80
311
0D400A402906560045004E0044004F0052004251801BC01C801B801A401D001BC01C801940138470045004E0054005200410043004F002C004900540041002C0030002C0046006F0072006E00690074006F00720065002C00470045004E00540052004100540058002C00250073002C002800470045004E004D00530047002
311
000670065006E0064007700670020003200320034002900A419100114014C010C014800C8010D4400650073006300720069007A0069006F006E006500200032004ED1C01140138015001480104010C013C00B001240150010400B000C000B00110019401CC018C01C801A401E801A401BC01B80194008000C800B0011C0114
311
01380150014801040150016000B0009401CC00B000A0011C011401380134014C011C0080019C019401B8019001DC019C008000CC00D800A4029095300540041004E00440041005200440032004294C01D0018401B80190018401C80190008000C80139470045004E0054005200410043004F002C004900540041002C003000
311
2C005300740061006E006400610072006400200032002C00470045004E00540052004100540058002C00250073002C002800470045004E004D00530047002000670065006E0064007700670020003200320030002900A42534010401500114014801240104013000C8010B4D006100740065007200690061006C0065002000
311
32004E51C01140138015001480104010C013C00B001240150010400B000C000B00134018401D0019401C801A4018401B00194008000C800B0011C011401380150014801040150016000B0009401CC00B000A0011C011401380134014C011C0080019C019401B8019001DC019C008000D000C000A4029044D00410053005300
311
41534018401CC01CC01840133470045004E0054005200410043004F002C004900540041002C0030002C004D0061007300730061002C00470045004E00540052004100540058002C00250073002C002800470045004E004D00530047002000670065006E006400770067002000340032002900A4154001480124010C0114010
311
65000720065007A007A006F004D11C01140138015001480104010C013C00B001240150010400B000C000B0014001C8019401E801E801BC00B0011C011401380150014801040150016000B0009401CC00B000A0011C011401380134014C011C0080019C019401B8019001DC019C008000D000CC00A402903440049004D00419
311
3401A401CC01D401C801840134470045004E0054005200410043004F002C004900540041002C0030002C004D00690073007500720061002C00470045004E00540052004100540058002C00250073002C002800470045004E004D00530047002000670065006E006400770067002000340034002900A42508013C0134017C01
311
54013801240150014C010555006E0069007400E0004D11C01140138015001480104010C013C00B001240150010400B000C000B0015401B801A401D0038000B0011C011401380150014801040150016000B0009401CC00B000A0011C011401380134014C011C0080019C019401B8019001DC019C008000C800D000CC00A4029
311
073D003C004900540045004D003E0041CF400F0012401500114013400F801073D003C004900540045004D003E0041CF400F0012401500114013400F801073D003C004900540045004D003E00418F400F001440150016400F801073D003C004900540045004D003E0041CF400F0012401500114013400F80244D1001A401CC0
311
1D001A401B801D001840080018C01BC01B401C001BC01B8019401B801D001A4010541005200490041004C00415040148012401040130010541005200490041004C00A404C4024359401840024019401840024013C019C01B801D401B8018400280117730071006D000900730071006D0009004D006500740072006F0020007
311
1007500610064007200610074006F000A00479CC01C4018C01B4002401CC01C4018C01B40024010C019401B801D001A401B4019401D001C801BC008001C401D40184019001C8018401D001BC00280119730071006600740009007300710066007400090050006900650064006500200071007500610064007200610074006F
311
000A0046DCC01C401A401B8002401CC01C401A401B80024014001BC01B001B001A4018C0194008001C401D40184019001C8018401D001BC00280110670061006C000900670061006C000900470061006C006C006F006E0065000A00431C401D0002401C401D00024014401D4018401C801D00028011C6C00710064005F006F
311
007A0009006C00710064005F006F007A0009004F006E0063006900610020006C006900710075006900640061000A00429B0002401B00024013001A401D001C801BC002801116D006C0009006D006C0009004D0069006C006C0069006C006900740072006F000A00431E40190002401E4019000240124018401C80190018400
311
28010C660074000900660074000900500069006500640065000A00439A401B8002401A401B80024014001BC01B001B001A4018C01940028010A6D0009006D0009004D006500740072006F000A004458C01B40024018C01B40024010C019401B801D001A401B4019401D001C801BC002801116D006D0009006D006D0009004D
311
0069006C006C0069006D006500740072006F000A00435B00188002401B001880024013001A40188018801C801840028010C6F007A0009006F007A0009004F006E006300690061000A0042D9C0024019C0024011C01C8018401B401B401BC002801126D00670009006D00670009004D0069006C006C0069006700720061006D
311
006D006F000A0043D8801E00024018801E00024014401D40184019001C8018401D001BC002801012D000
161
              6477
310
7080000000000000C400000000000000110200800030C0200C00030C012AFA1E80A0280A0280A0280D20200000000000012202032024050140501409014050140501901000000000000091010190120280A0280A3880C80C81500000000000009C8080C80901405014051D40640640E8000000000080514040640480A0280A
310
028EA03203209400000000000024A0203202405014050147501901905A0000000000000E5010190120280A0280A3A80C80C83500000000000007C8080880901405014051D40640641E80000000000003E4040440480A0280A028EA03203211400000000004028A0202202405014050147501901909A0000000000001250101
310
10120280A0280A3A80C80C8550E27A15AF46E08A8080880901405014051D405024050242D034080000000000003E4040440480A0280A028EA028120281218812040000000000001F20202202405014050147501409014090D40D020000000000000F9010190120280A0280A3C80C80C87500000000000007C8080C80901405
310
0F4A9020000000000000510201C00030C00010180000000000003E400000000000000F901014060000000000000F9000000000000003E4040501800000000000034400000000000000D101014060000000000000D1000000000000003440405029010000000000000F9000000000000003E40405014060000000000000F900
310
0000000000003E4040501800000000000034400000000000000D10101404000000000000003E400000000000000F90290800000000000020810000001800169FFFE8220681A048120280A20852108820321480C8452028521485214814000000000000F0BF0000000000003C2FD018020000C3008070000C30026A66666666
310
67D4FC9A9999999999F53F26A6666666667D4FC333333333333F33F337333333333370FC333333333333F33F26A6666666667D4FC333333333333F33F337333333333370FC333333333333F33F0000000000000310080A028120B20281A0882A0340000000000000C408020000C3008020000C3008010000C300291440BF9F
310
FFE7FFF9FFFE4050140515405014050140501405014050140501405014050140501405014064068320481A0882A1A870
340
15
340
0
340
ED6
340
ED6
340
16
340
16
340
16
 94
        0
  0
ACAD_PROXY_OBJECT
  5
285A5
330
2859D
100
AcDbProxyObject
 90
      499
 91
      584
 71
    31
 97
      105
 70
     0
162
               570
311
48CF400F0011001140150010401240130017C0130010401080114013000F8008000A000F0011001140150010401240130017C01040108014C014C010C01040130011400F800A4000
161
               658
310
70800000000000014400000000000000510201C00030C0200C00030C012AE8A0E4D4CCCCCCCCCDC9F9353333333333927E000000000000701FA000000000000002000000000000002880000000000000122040
340
16
340
ED6
 94
        0
  0
ACAD_PROXY_OBJECT
  5
285A6
330
2859D
100
AcDbProxyObject
 90
      499
 91
      607
 71
    31
 97
      105
 70
     0
162
               698
311
4ACF400F0014C0114010C01500124013C0138017C01300104010801140130017C011801240148014C015000F800B400F0014C0114010C01500124013C0138017C01300104010801140130017C01300104014C015000F8000
161
               537
310
70800000000000014400000000000000510201C00030C02000000300012AE00F000000000000091007FFFC000000600000000000000002440000000000000051027FFF80
340
15
340
ED6
 94
        0
  0
ACAD_PROXY_OBJECT
  5
285A7
330
2859D
100
AcDbProxyObject
 90
      499
 91
      586
 71
    31
 97
      105
 70
     0
161
               388
310
7080000000000000C400000000000000110200800030C0200C00030C012AFD000000000000010814333333333333F33F20
  0
ACAD_PROXY_OBJECT
  5
285A8
330
2859D
100
AcDbProxyObject
 90
      499
 91
      589
 71
    31
 97
      105
 70
     0
161
               249
310
7080000000000000C400000000000000110200800030C0200C00030C012AFC00
340
0
 94
        0
  0
ACAD_PROXY_OBJECT
  5
285A9
330
2859D
100
AcDbProxyObject
 90
      499
 91
      587
 71
    31
 97
      105
 70
     0
162
             21148
311
4253401BC0190019401B001B001BC008000C4003A013D002500250063003C0048006F006C0065003A00630074006400690061003E002000780020003C0048006F006C0065003A0063007400640065007000740068003E00200055005C0050003C0069006600280065007100750061006C00280048006F006C0065003A00740
311
0610070007000650064002C0022003000220029002C00220025002500630022002C0048006F006C0065003A006E006F006D0069006E0061006C0020002200200078002000220029003E003C0069006600280065007100750061006C00280048006F006C0065003A007400610070007000650064002C0022003000220029002
311
C0048006F006C0065003A006400690061002C0048006F006C0065003A0070006900740063006800640065007300630029003E003C0069006600280065007100750061006C00280048006F006C0065003A007400610070007000650064002C0022003100220029002C00220020007800200022002C002200220029003E003C0
311
069006600280065007100750061006C00280048006F006C0065003A007400610070007000650064002C0022003100220029002C0048006F006C0065003A00740061007000640065007000740068002C002200220029003E0020003C0069006600280065007100750061006C00280048006F006C0065003A007400650072006
311
D0069006E006100740069006F006E002C0022003000220029002C00220020002F00200022002C002200220029003E003C0069006600280065007100750061006C00280048006F006C0065003A007400650072006D0069006E006100740069006F006E002C0022003000220029002C0048006F006C0065003A0064006500700
311
0740068002C002200220029003E004253401BC0190019401B001B001BC008000C4003B013D002500250063003C0048006F006C0065003A00630074006400690061003E002000780020003C0048006F006C0065003A006300740061006E0067006C0065003E002500250064005C0050003C0069006600280065007100750061
311
006C00280048006F006C0065003A007400610070007000650064002C0022003000220029002C00220025002500630022002C0048006F006C0065003A006E006F006D0069006E0061006C0020002200200078002000220029003E003C0069006600280065007100750061006C00280048006F006C0065003A00740061007000
311
7000650064002C0022003000220029002C0048006F006C0065003A006400690061002C0048006F006C0065003A0070006900740063006800640065007300630029003E003C0069006600280065007100750061006C00280048006F006C0065003A007400610070007000650064002C0022003100220029002C002200200078
311
00200022002C002200220029003E003C0069006600280065007100750061006C00280048006F006C0065003A007400610070007000650064002C0022003100220029002C0048006F006C0065003A00740061007000640065007000740068002C002200220029003E0020003C0069006600280065007100750061006C002800
311
48006F006C0065003A007400650072006D0069006E006100740069006F006E002C0022003000220029002C00220020002F00200022002C002200220029003E003C0069006600280065007100750061006C00280048006F006C0065003A007400650072006D0069006E006100740069006F006E002C0022003000220029002C
311
0048006F006C0065003A00640065007000740068002C002200220029003E004253401BC0190019401B001B001BC008000C40016013D003C0069006600280065007100750061006C00280048006F006C0065003A007400610070007000650064002C0022003000220029002C00220025002500630022002C0048006F006C006
311
5003A006E006F006D0069006E0061006C0020002200200078002000220029003E003C0069006600280065007100750061006C00280048006F006C0065003A007400610070007000650064002C0022003000220029002C0048006F006C0065003A006400690061002C0048006F006C0065003A0070006900740063006800640
311
065007300630029003E003C0069006600280065007100750061006C00280048006F006C0065003A007400610070007000650064002C0022003100220029002C00220020007800200022002C002200220029003E003C0069006600280065007100750061006C00280048006F006C0065003A007400610070007000650064002
311
C0022003100220029002C0048006F006C0065003A00740061007000640065007000740068002C002200220029003E0020003C0069006600280065007100750061006C00280048006F006C0065003A007400650072006D0069006E006100740069006F006E002C0022003000220029002C00220020002F00200022002C00220
311
0220029003E003C0069006600280065007100750061006C00280048006F006C0065003A007400650072006D0069006E006100740069006F006E002C0022003000220029002C0048006F006C0065003A00640065007000740068002C002200220029003E004253401BC0190019401B001B001BC008000C40027013D00250025
311
0063003C0048006F006C0065003A00630074006400690061003E005C0050003C0069006600280065007100750061006C00280048006F006C0065003A007400610070007000650064002C0022003000220029002C00220025002500630022002C0048006F006C0065003A006E006F006D0069006E0061006C00200022002000
311
78002000220029003E003C0069006600280065007100750061006C00280048006F006C0065003A007400610070007000650064002C0022003000220029002C0048006F006C0065003A006400690061002C0048006F006C0065003A0070006900740063006800640065007300630029003E003C006900660028006500710075
311
0061006C00280048006F006C0065003A007400610070007000650064002C0022003100220029002C00220020007800200022002C002200220029003E003C0069006600280065007100750061006C00280048006F006C0065003A007400610070007000650064002C0022003100220029002C0048006F006C0065003A007400
311
61007000640065007000740068002C002200220029003E0020003C0069006600280065007100750061006C00280048006F006C0065003A007400650072006D0069006E006100740069006F006E002C0022003000220029002C00220020002F00200022002C002200220029003E003C0069006600280065007100750061006C
311
00280048006F006C0065003A007400650072006D0069006E006100740069006F006E002C0022003000220029002C0048006F006C0065003A00640065007000740068002C002200220029003E004253401BC0190019401B001B001BC008000C801173D003C0053005400440050003A0044004500530043003E0020003C00530
311
05400440050003A005300540044003E004253401BC0190019401B001B001BC008000C4010C3D003C0053005400440050003A0044004500530043003E004253401BC0190019401B001B001BC008000CC010B3D003C0053005400440050003A005300540044003E000
161
               732
310
7080000000000000C400000000000000110200800030C0200C00030C012AFA1280A17480A15480A0480A0280E9014050340501407480A0280A0280A03A4050141D0140501D20280A3C81A0280E901405480A02A40D01456AAB855090
360
285CB
330
285CB
360
285CC
330
285CC
360
285CA
330
285CA
360
285CD
330
285CD
360
285C8
360
285C7
360
285C9
330
285C8
330
285C7
330
285C9
 94
        0
  0
ACAD_PROXY_OBJECT
  5
285AA
330
2859D
100
AcDbProxyObject
 90
      499
 91
      602
 71
    31
 97
      105
 70
     0
162
                26
311
404E8000
161
               305
310
7080000000000000C400000000000000110200800030C0200C00030C012AFA175203480A035500
  0
ACAD_PROXY_OBJECT
  5
285AB
330
2859D
100
AcDbProxyObject
 90
      499
 91
      608
 71
    31
 97
      105
 70
     0
162
              1034
311
500F400F0014C015001480154010C015000E8010C013C01340140017C013801040134011400F8008000F0014C015001480154010C015000E8015801240114015C017C013801040134011400F80080015801A401CC01D00184008000A000F0014C015001480154010C015000E8014C0158017C014C010C01040130011400F80
311
0A4000
161
               332
310
70800000000000014400000000000000110201C00030C0200C00030C012AFA0281000000000000068810
340
ED6
 94
        0
  0
ACAD_PROXY_OBJECT
  5
285AC
330
2859D
100
AcDbProxyObject
 90
      499
 91
      567
 71
    31
 97
      105
 70
     0
161
               261
310
7080000000000000C400000000000000110200800030C0200C00030C012AFA0750
340
285B7
 94
        0
  0
ACAD_PROXY_OBJECT
  5
285AD
330
2859D
100
AcDbProxyObject
 90
      499
 91
      568
 71
    31
 97
      105
 70
     0
162
               126
311
408F000F801023C003E00409A000DC00
161
               408
310
7080000000000000C400000000000000110200800030C0200C00030C012AFA080000000000001420000000000000048807FFFC
340
19282
340
19F65
340
1A0A6
340
19283
340
19284
340
285AE
340
285AF
340
285B0
340
285B5
340
0
340
19284
340
19F65
 94
        0
  0
ACAD_PROXY_OBJECT
  5
285B6
330
2859D
100
AcDbProxyObject
 90
      499
 91
      588
 71
    31
 97
      105
 70
     0
162
             21892
311
4451401B0019401B8018C01BC0080018C01BC01BC01C8019001A401B8018401D001940140470045004E0054005200410043004F002C004900540041002C0030002C0045006C0065006E0063006F00200063006F006F007200640069006E006100740065002C00470045004E00540052004100540058002C00250073002C002
311
800470045004E004D00530047002000670065006E00640069006D007A00200033003000290043CF400F0011001940198018401D401B001D0015001A401D001B0019400F8010C54006100620065006C006C006100200066006F00720069004ED1C01140138015001480104010C013C00B001240150010400B000C000B001500
311
1840188019401B001B001840080019801BC01C801A400B0011C011401380150014801040150016000B0009401CC00B000A0011C011401380134014C011C0080019C019401B8019001A401B401E8008000CC00C400A4010F3D003C00440065006600610075006C0074005400690074006C0065003E0041D3C01C801A4019C01
311
A401B801940135470045004E0054005200410043004F002C004900540041002C0030002C004F0072006900670069006E0065002C00470045004E00540052004100540058002C00250073002C002800470045004E004D00530047002000670065006E00640069006D007A002000310029004111801BC01C801BC01324700450
311
04E0054005200410043004F002C004900540041002C0030002C0046006F0072006F002C00470045004E00540052004100540058002C00250073002C002800470045004E004D00530047002000670065006E00640069006D007A002000320029004FCF400F0013C01C801A4019C01A401B800F800F00124011800A0013C0148
311
00A00124014C0108013001040138012C00A0013C01C801A4019C01A401B800A400B00124014C0108013001040138012C00A0012401B80190019401E000A400A400B00088008800B0008800B8008800A400F800F0012401B80190019401E000F8010158004BD1C01140138015001480104010C013C00B001240150010400B00
311
0C000B0016000B0011C011401380150014801040150016000B0009401CC00B000A0011C011401380134014C011C0080019C019401B8019001A401B401E8008000CC00A4010159004BD1C01140138015001480104010C013C00B001240150010400B000C000B0016400B0011C011401380150014801040150016000B0009401
311
CC00B000A0011C011401380134014C011C0080019C019401B8019001A401B401E8008000D000A4010172004BD1C01140138015001480104010C013C00B001240150010400B000C000B001C800B0011C011401380150014801040150016000B0009401CC00B000A0011C011401380134014C011C0080019C019401B8019001A
311
401B401E8008000D800A401187B005C006600530079006D0062006F006C007C00620030007C00690030007C00630032007C00700030003B006A007D005191C01140138015001480104010C013C00B001240150010400B000C000B001EC01700198014C01E401B4018801BC01B001F0018800C001F001A400C001F0018C00C8
311
01F001C000C000EC01A801F400B0011C011401380150014801040150016000B0009401CC00B000A0011C011401380134014C011C0080019C019401B8019001A401B401E8008000DC00A401032500250063004C51C01140138015001480104010C013C00B001240150010400B000C000B000940094018C00B0011C011401380
311
150014801040150016000B0009401CC00B000A0011C011401380134014C011C0080019C019401B8019001A401B401E8008000E000A4010B4400650073006300720069007A0069006F006E0065004E91C01140138015001480104010C013C00B001240150010400B000C000B00110019401CC018C01C801A401E801A401BC01
311
B8019400B0011C011401380150014801040150016000B0009401CC00B000A0011C011401380134014C011C0080019C019401B8019001A401B401E8008000C800C000A401085300740061006E0064006100720064004DD1C01140138015001480104010C013C00B001240150010400B000C000B0014C01D0018401B80190018
311
401C8019000B0011C011401380150014801040150016000B0009401CC00B000A0011C011401380134014C011C0080019C019401B8019001A401B401E8008000C800C400A401074F0072006900670069006E0065004D51C01140138015001480104010C013C00B001240150010400B000C000B0013C01C801A4019C01A401B8
311
019400B0011C011401380150014801040150016000B0009401CC00B000A0011C011401380134014C011C0080019C019401B8019001A401B401E8008000C400A4010131004114001BC01CC00B80133470045004E0054005200410043004F002C004900540041002C0030002C0050006F0073002E002C00470045004E0054005
311
2004100540058002C00250073002C002800470045004E004D00530047002000670065006E00640069006D007A0020003100340029004192401B8019001A4018C01940135470045004E0054005200410043004F002C004900540041002C0030002C0049006E0064006900630065002C00470045004E00540052004100540058
311
002C00250073002C002800470045004E004D00530047002000670065006E00640069006D007A00200031003500290042D2401B8019001A4018C01940080019801BC01C801BC013A470045004E0054005200410043004F002C004900540041002C0030002C0049006E006400690063006500200066006F0072006F002C00470
311
045004E00540052004100540058002C00250073002C002800470045004E004D00530047002000670065006E00640069006D007A00200031003700290043D1401B0019401B4019401B801D001BC008001D401D0019401B801D00194013E470045004E0054005200410043004F002C004900540041002C0030002C0045006C00
311
65006D0065006E0074006F0020007500740065006E00740065002C00470045004E00540052004100540058002C00250073002C002800470045004E004D00530047002000670065006E00640069006D007A0020003200320029004111801BC01C801BC0133470045004E0054005200410043004F002C004900540041002C003
311
0002C0046006F0072006F002C00470045004E00540052004100540058002C00250073002C002800470045004E004D00530047002000670065006E00640069006D007A00200031003600290040D4401D003800132470045004E0054005200410043004F002C004900540041002C0030002C0051007400E0002C00470045004E
311
00540052004100540058002C00250073002C002800470045004E004D00530047002000670065006E00640069006D007A0020003100390029004FCF400F0013C01C801A4019C01A401B800F800F00124011800A0013C014800A00124014C0108013001040138012C00A0013C01C801A4019C01A401B800A400B00124014C010
311
8013001040138012C00A0012401B80190019401E000A400A400B00088008800B0008800B8008800A400F800F0012401B80190019401E000F801453D003C004F0072006900670069006E003E003C004900460028004F00520028004900530042004C0041004E004B0028004F0072006900670069006E0029002C00490053004
311
2004C0041004E004B00280055007300650072004900740065006D00290029002C00220022002C0022002E00220029003E003C0055007300650072004900740065006D003E000
161
              7153
310
7080000000000000C400000000000000110200800030C0200C00030C012AFA46307FFFFFFFA0606000600000000000006204010000618068181800180000000000001881004000186018080F02018000000000000000000000000000000020000000000000620401000061802000000000000062040100006180403F8080F0
310
2018000000000000000000000000000000020000000000000620401000061802000000000000062040100006180403FA1C88222812068220A83A1886A1E80A1C89A2A81A2483A28880000808000808200110A00010101010104002234000202000202000040A8000404000404000081D0000808000808000104A0001010001
310
01030020B4000202000202020041E80004040004001000865000080800080020010DA000101010101040021F40002020002020A01406800040400040414028750000808000808280113A000101000101050022B4000202000202080044A800040400040418008A5220000000000000001CA04FFFFFFFF030000000000000D1
310
027FFFFFFF80800000000000068813FFFFFFFC0400000000000034409FFFFFFFE040000000000001A204FFFFFFFF020000000000000D1027FFFFFFF81800000000000072813FFFFFFFC0C00000000000049409FFFFFFFE0600000000004028A04FFFFFFFF000000000000000D1027FFFFFFF80000000000000048813FFFFFF
310
FC0000000000000034409FFFFFFFE000000000000001A204FFFFFFFF000000000000000D1027FFFFFFF80000000000000068813FFFFFFFC0C00000000000028409FFFFFFFE8800000000000000072813FFFFFFFC0C00000000000034409FFFFFFFE060000000000001A204FFFFFFFF030000000000000D1027FFFFFFF81800
310
000000000068813FFFFFFFC0C00000000000034409FFFFFFFE060000000000001CA04FFFFFFFF03000000000000125027FFFFFFF818000000000100A2813FFFFFFFC0000000000000034409FFFFFFFE0000000000000012204FFFFFFFF000000000000000D1027FFFFFFF80000000000000068813FFFFFFFC0000000000000
310
034409FFFFFFFE060000000000001A204FFFFFFFF030000000000000A1027FFFFFFFA0E8800000021E000000810000002060000008200000020A00000083800000202890000001FFFFFFFE81202000283A2000000087800000204000000818000002080000008280000020E000000810000A068800000021E0000008A80000
310
01FFFFFFFF00
340
0
340
0
340
0
340
0
340
ED6
340
ED6
 94
        0
  0
ACAD_PROXY_OBJECT
  5
285C1
330
2859D
100
AcDbProxyObject
 90
      499
 91
      560
 71
    31
 97
      105
 70
     0
162
             14084
311
40D24014C013C0106490053004F005F004100330042924014C013C017C0150012401500130011401040113490053004F005F00420052005F005200650076006900730069006F006E006C006900730074004450400D001E000D8008000A000C800E400DC01E000C400C800D800C401B401B400A40108490053004F005F00410
311
034007800360044D0400C001E000C8008000A000C400C400E000E401E000C400D800E000C8008001B401B400A40108490053004F005F0041003000780032004490400D001E000DC008000A000C800E400DC01E000C400D000DC00C4008001B401B400A40108490053004F005F0041003400780037004490400D001E000D400
311
8000A000C800E400DC01E000C400C000D400C4008001B401B400A40108490053004F005F0041003400780035004450400D001E000CC008000A000C800E400DC01E000D800CC00C0008001B401B400A40108490053004F005F00410034007800330044D0400C001E000CC008000A000C400C400E000E401E000C800D400C800
311
CC008001B401B400A40108490053004F005F0041003000780033004390400D0008000A000C800E400DC01E000C800C400C001B401B400A40106490053004F005F00410034004490400C801E000CC008000A000D400E400D001E000C400C800D800C4008001B401B400A40108490053004F005F004100320078003300449040
311
0D001E000D0008000A000C800E400DC01E000E000D000C4008001B401B400A400800108490053004F005F0041003400780034004490400C401E000CC008000A000E000D000C401E000C400DC00E000CC008001B401B400A40108490053004F005F0041003100780033004450400C0008000A000E000D000C001E000C400C40
311
0E000E4008001B401B400A400800106490053004F005F00410030004490400CC01E000D4008000A000D000C800C001E000C400D000E000D8008001B401B400A40108490053004F005F0041003300780035004490400CC01E000D0008000A000D000C800C001E000C400C400E000E4008001B401B400A40108490053004F005
311
F0041003300780034004390400CC008000A000C800E400DC01E000D000C800C001B401B400A40106490053004F005F00410033004490400D001E000E4008000A000C800E400DC01E000C400E000E400C8008001B401B400A40108490053004F005F0041003400780039004490400C801E000D4008000A000D400E400D001E0
311
00C800C400C000C8008001B401B400A40108490053004F005F0041003200780035004490400C401E000D0008000A000E000D000C401E000C800CC00DC00E0008001B401B400A40108490053004F005F0041003100780034004490400D001E000E0008000A000C800E400DC01E000C400D800E000C8008001B401B400A40108
311
490053004F005F0041003400780038004490400CC01E000DC008000A000D000C800C001E000C800C000E000C0008001B401B400A40108490053004F005F00410033007800370043D0400C8008000A000D000C800C001E000D400E400D0008001B401B400A40106490053004F005F00410032004410400CC01E000CC008000A
311
000D000C800C001E000E000E400C401B401B400A40108490053004F005F0041003300780033004490400C801E000D0008000A000D400E400D001E000C400D800E000C8008001B401B400A40108490053004F005F00410032007800340043D0400C4008000A000D400E400D001E000E000D000C4008001B401B400A40106490
311
053004F005F00410031004450400CC01E000D8008000A000D000C800C001E000C400DC00E000CC01B401B400A40108490053004F005F00410033007800360043D24014C013C0080010C018401C801D001A4019C01B001A401BC00800104010A490053004F005F005400490054004C004500410043D24014C013C0080010C01
311
8401C801D001A4019C01B001A401BC00800108010A490053004F005F005400490054004C00450042004511401B0019401B8018C01BC008001C8019401D801A401CC01A401BC01B801A4017C01080148017C0113490053004F005F00420052005F005200650076006900730069006F006E006C006900730074004511401B001
311
9401B8018C01BC008001C8019401D801A401CC01A401BC01B801A4017C01500148017C0113490053004F005F00540052005F005200650076006900730069006F006E006C006900730074004511401B0019401B8018C01BC008001C8019401D801A401CC01A401BC01B801A4017C01080130017C0113490053004F005F00420
311
04C005F005200650076006900730069006F006E006C006900730074004511401B0019401B8018C01BC008001C8019401D801A401CC01A401BC01B801A4017C01500130017C0113490053004F005F0054004C005F005200650076006900730069006F006E006C00690073007400A0
161
               498
310
7080000000000000C400000000000000110200800030C0200C00030C012AFB2E8C204822054000000000020159000000000000003240000000000000071000
  0
ACAD_PROXY_OBJECT
  5
27801
330
27800
100
AcDbProxyObject
 90
      499
 91
      617
 71
    31
 97
      105
 70
     0
162
               772
311
47504018C01100188010401CC01CC01BC018C010401C801C8018401E4014001BC01B0018401C80140018401C8018401B4019401D0019401C801CC011241006300440062004100730073006F006300410072007200610079004900740065006D000
161
               786
310
40901902AA420A479A2E0BCB47640060B62A4088FDFD02901A430020000000000F0BF000000000000330F23B24A8B82F151F100000000000000CEBC3FFFFFFFFFFFFBEFE2D035152245BE09029AA5A32070CF7DE34599026145B0D14D2BD4C7029AA40
330
277FD
330
277FE
 94
        0
  0
ACAD_PROXY_OBJECT
  5
27805
330
27800
100
AcDbProxyObject
 90
      499
 91
      619
 71
    31
 97
      105
 70
     0
161
                29
310
40A78808
330
0
330
0
330
0
360
0
 94
        0
  0
ACAD_PROXY_OBJECT
  5
27806
330
27800
100
AcDbProxyObject
 90
      499
 91
      619
 71
    31
 97
      105
 70
     0
161
                29
310
40AB8810
330
277E2
330
0
330
0
360
0
 94
        0
  0
ACAD_PROXY_OBJECT
  5
27807
330
27800
100
AcDbProxyObject
 90
      499
 91
      619
 71
    31
 97
      105
 70
     0
161
                61
310
40AF000000200818
330
0
330
0
330
0
360
0
 94
        0
  0
ACAD_PROXY_OBJECT
  5
27802
330
27800
100
AcDbProxyObject
 90
      499
 91
      618
 71
    31
 97
      105
 70
     0
162
               170
311
42908018401CC0194013801BC01C801B4018401B0000
161
                22
310
406AA4
330
0
 94
        0
  0
ACAD_PROXY_OBJECT
  5
27803
330
27800
100
AcDbProxyObject
 90
      499
 91
      618
 71
    31
 97
      105
 70
     0
162
               106
311
4193C01C801A4019C01A401B8000
161
               150
310
406A1221A8B82F211E50020124548910781408
330
0
 94
        0
  0
ACAD_PROXY_OBJECT
  5
27804
330
27800
100
AcDbProxyObject
 90
      499
 91
      618
 71
    31
 97
      105
 70
     0
162
               154
311
42588018401CC0194014001BC01A401B801D0000
161
                22
310
406AA8
330
0
 94
        0
  0
ACAD_PROXY_OBJECT
  5
27825
330
27824
100
AcDbProxyObject
 90
      499
 91
      617
 71
    31
 97
      105
 70
     0
162
               772
311
47504018C01100188010401CC01CC01BC018C010401C801C8018401E4014001BC01B0018401C80140018401C8018401B4019401D0019401C801CC011241006300440062004100730073006F006300410072007200610079004900740065006D000
161
               786
310
40901902AA420C80BD57265B18E403553E2A408A5DF902901A430000000000000F0BF000000000000322F23022DAAE6C8524500000000000000CE3C3FFFFFFFFFFFFBEFE34C351522470E09029AA5A2206BCE6B6419930260C414D54D2BD4C7029AA40
330
27821
330
27822
 94
        0
  0
ACAD_PROXY_OBJECT
  5
27829
330
27824
100
AcDbProxyObject
 90
      499
 91
      619
 71
    31
 97
      105
 70
     0
161
                29
310
40A78808
330
0
330
0
330
0
360
0
 94
        0
  0
ACAD_PROXY_OBJECT
  5
2782A
330
27824
100
AcDbProxyObject
 90
      499
 91
      619
 71
    31
 97
      105
 70
     0
161
                29
310
40AB8810
330
27808
330
0
330
0
360
0
 94
        0
  0
ACAD_PROXY_OBJECT
  5
2782B
330
27824
100
AcDbProxyObject
 90
      499
 91
      619
 71
    31
 97
      105
 70
     0
161
                61
310
40AF000000200818
330
0
330
0
330
0
360
0
 94
        0
  0
ACAD_PROXY_OBJECT
  5
27826
330
27824
100
AcDbProxyObject
 90
      499
 91
      618
 71
    31
 97
      105
 70
     0
162
               170
311
42908018401CC0194013801BC01C801B4018401B0000
161
                22
310
406AA4
330
0
 94
        0
  0
ACAD_PROXY_OBJECT
  5
27827
330
27824
100
AcDbProxyObject
 90
      499
 91
      618
 71
    31
 97
      105
 70
     0
162
               106
311
4193C01C801A4019C01A401B8000
161
               150
310
406A34A21AAE6C8DA4100DF1A4548910781408
330
0
 94
        0
  0
ACAD_PROXY_OBJECT
  5
27828
330
27824
100
AcDbProxyObject
 90
      499
 91
      618
 71
    31
 97
      105
 70
     0
162
               154
311
42588018401CC0194014001BC01A401B801D0000
161
                22
310
406AA8
330
0
 94
        0
  0
ACAD_PROXY_OBJECT
  5
285CB
330
285A9
100
AcDbProxyObject
 90
      499
 91
      566
 71
    31
 97
      105
 70
     0
162
              5196
311
4253401BC0190019401B001B001BC008000C4003A013D002500250063003C0048006F006C0065003A00630074006400690061003E002000780020003C0048006F006C0065003A0063007400640065007000740068003E00200055005C0050003C0069006600280065007100750061006C00280048006F006C0065003A00740
311
0610070007000650064002C0022003000220029002C00220025002500630022002C0048006F006C0065003A006E006F006D0069006E0061006C0020002200200078002000220029003E003C0069006600280065007100750061006C00280048006F006C0065003A007400610070007000650064002C0022003000220029002
311
C0048006F006C0065003A006400690061002C0048006F006C0065003A0070006900740063006800640065007300630029003E003C0069006600280065007100750061006C00280048006F006C0065003A007400610070007000650064002C0022003100220029002C00220020007800200022002C002200220029003E003C0
311
069006600280065007100750061006C00280048006F006C0065003A007400610070007000650064002C0022003100220029002C0048006F006C0065003A00740061007000640065007000740068002C002200220029003E0020003C0069006600280065007100750061006C00280048006F006C0065003A007400650072006
311
D0069006E006100740069006F006E002C0022003000220029002C00220020002F00200022002C002200220029003E003C0069006600280065007100750061006C00280048006F006C0065003A007400650072006D0069006E006100740069006F006E002C0022003000220029002C0048006F006C0065003A0064006500700
311
0740068002C002200220029003E000
161
                29
310
70A01018
  0
ACAD_PROXY_OBJECT
  5
285CC
330
285A9
100
AcDbProxyObject
 90
      499
 91
      566
 71
    31
 97
      105
 70
     0
162
              5212
311
4253401BC0190019401B001B001BC008000C4003B013D002500250063003C0048006F006C0065003A00630074006400690061003E002000780020003C0048006F006C0065003A006300740061006E0067006C0065003E002500250064005C0050003C0069006600280065007100750061006C00280048006F006C0065003A0
311
07400610070007000650064002C0022003000220029002C00220025002500630022002C0048006F006C0065003A006E006F006D0069006E0061006C0020002200200078002000220029003E003C0069006600280065007100750061006C00280048006F006C0065003A007400610070007000650064002C002200300022002
311
9002C0048006F006C0065003A006400690061002C0048006F006C0065003A0070006900740063006800640065007300630029003E003C0069006600280065007100750061006C00280048006F006C0065003A007400610070007000650064002C0022003100220029002C00220020007800200022002C002200220029003E0
311
03C0069006600280065007100750061006C00280048006F006C0065003A007400610070007000650064002C0022003100220029002C0048006F006C0065003A00740061007000640065007000740068002C002200220029003E0020003C0069006600280065007100750061006C00280048006F006C0065003A00740065007
311
2006D0069006E006100740069006F006E002C0022003000220029002C00220020002F00200022002C002200220029003E003C0069006600280065007100750061006C00280048006F006C0065003A007400650072006D0069006E006100740069006F006E002C0022003000220029002C0048006F006C0065003A006400650
311
07000740068002C002200220029003E000
161
                29
310
70A01018
  0
ACAD_PROXY_OBJECT
  5
285CA
330
285A9
100
AcDbProxyObject
 90
      499
 91
      566
 71
    31
 97
      105
 70
     0
162
              4620
311
4253401BC0190019401B001B001BC008000C40016013D003C0069006600280065007100750061006C00280048006F006C0065003A007400610070007000650064002C0022003000220029002C00220025002500630022002C0048006F006C0065003A006E006F006D0069006E0061006C00200022002000780020002200290
311
03E003C0069006600280065007100750061006C00280048006F006C0065003A007400610070007000650064002C0022003000220029002C0048006F006C0065003A006400690061002C0048006F006C0065003A0070006900740063006800640065007300630029003E003C0069006600280065007100750061006C0028004
311
8006F006C0065003A007400610070007000650064002C0022003100220029002C00220020007800200022002C002200220029003E003C0069006600280065007100750061006C00280048006F006C0065003A007400610070007000650064002C0022003100220029002C0048006F006C0065003A007400610070006400650
311
07000740068002C002200220029003E0020003C0069006600280065007100750061006C00280048006F006C0065003A007400650072006D0069006E006100740069006F006E002C0022003000220029002C00220020002F00200022002C002200220029003E003C0069006600280065007100750061006C00280048006F006
311
C0065003A007400650072006D0069006E006100740069006F006E002C0022003000220029002C0048006F006C0065003A00640065007000740068002C002200220029003E000
161
                29
310
70A01018
  0
ACAD_PROXY_OBJECT
  5
285CD
330
285A9
100
AcDbProxyObject
 90
      499
 91
      566
 71
    31
 97
      105
 70
     0
162
              4892
311
4253401BC0190019401B001B001BC008000C40027013D002500250063003C0048006F006C0065003A00630074006400690061003E005C0050003C0069006600280065007100750061006C00280048006F006C0065003A007400610070007000650064002C0022003000220029002C00220025002500630022002C0048006F0
311
06C0065003A006E006F006D0069006E0061006C0020002200200078002000220029003E003C0069006600280065007100750061006C00280048006F006C0065003A007400610070007000650064002C0022003000220029002C0048006F006C0065003A006400690061002C0048006F006C0065003A0070006900740063006
311
800640065007300630029003E003C0069006600280065007100750061006C00280048006F006C0065003A007400610070007000650064002C0022003100220029002C00220020007800200022002C002200220029003E003C0069006600280065007100750061006C00280048006F006C0065003A007400610070007000650
311
064002C0022003100220029002C0048006F006C0065003A00740061007000640065007000740068002C002200220029003E0020003C0069006600280065007100750061006C00280048006F006C0065003A007400650072006D0069006E006100740069006F006E002C0022003000220029002C00220020002F00200022002
311
C002200220029003E003C0069006600280065007100750061006C00280048006F006C0065003A007400650072006D0069006E006100740069006F006E002C0022003000220029002C0048006F006C0065003A00640065007000740068002C002200220029003E000
161
                29
310
70A01018
  0
ACAD_PROXY_OBJECT
  5
285C8
330
285A9
100
AcDbProxyObject
 90
      499
 91
      566
 71
    31
 97
      105
 70
     0
162
               532
311
4253401BC0190019401B001B001BC008000C801173D003C0053005400440050003A0044004500530043003E0020003C0053005400440050003A005300540044003E000
161
                29
310
70A01010
  0
ACAD_PROXY_OBJECT
  5
285C7
330
285A9
100
AcDbProxyObject
 90
      499
 91
      566
 71
    31
 97
      105
 70
     0
162
               356
311
4253401BC0190019401B001B001BC008000C4010C3D003C0053005400440050003A0044004500530043003E000
161
                29
310
70A01018
  0
ACAD_PROXY_OBJECT
  5
285C9
330
285A9
100
AcDbProxyObject
 90
      499
 91
      566
 71
    31
 97
      105
 70
     0
162
               340
311
4253401BC0190019401B001B001BC008000CC010B3D003C0053005400440050003A005300540044003E000
161
                29
310
70A01010
  0
ENDSEC
  0
SECTION
  2
ACDSDATA
 70
     2
 71
     2
  0
ACDSSCHEMA
 90
        0
  1
AcDb_Thumbnail_Schema
  2
AcDbDs::ID
280
    10
 91
        8
  2
Thumbnail_Data
280
    15
 91
        0
101
ACDSRECORD
 95
        0
 90
        2
  2
AcDbDs::TreatedAsObjectData
280
     1
291
     1
101
ACDSRECORD
 95
        0
 90
        3
  2
AcDbDs::Legacy
280
     1
291
     1
101
ACDSRECORD
  1
AcDbDs::ID
 90
        4
  2
AcDs:Indexable
280
     1
291
     1
101
ACDSRECORD
  1
AcDbDs::ID
 90
        5
  2
AcDbDs::HandleAttribute
280
     7
282
     1
  0
ACDSSCHEMA
 90
        1
  1
AcDb3DSolid_ASM_Data
  2
AcDbDs::ID
280
    10
 91
        8
  2
ASM_Data
280
    15
 91
        0
101
ACDSRECORD
 95
        1
 90
        2
  2
AcDbDs::TreatedAsObjectData
280
     1
291
     1
101
ACDSRECORD
 95
        1
 90
        3
  2
AcDbDs::Legacy
280
     1
291
     1
101
ACDSRECORD
  1
AcDbDs::ID
 90
        4
  2
AcDs:Indexable
280
     1
291
     1
101
ACDSRECORD
  1
AcDbDs::ID
 90
        5
  2
AcDbDs::HandleAttribute
280
     7
282
     1
  0
ACDSSCHEMA
 90
        2
  1
AcDbDs::TreatedAsObjectDataSchema
  2
AcDbDs::TreatedAsObjectData
280
     1
 91
        0
  0
ACDSSCHEMA
 90
        3
  1
AcDbDs::LegacySchema
  2
AcDbDs::Legacy
280
     1
 91
        0
  0
ACDSSCHEMA
 90
        4
  1
AcDbDs::IndexedPropertySchema
  2
AcDs:Indexable
280
     1
 91
        0
  0
ACDSSCHEMA
 90
        5
  1
AcDbDs::HandleAttributeSchema
  2
AcDbDs::HandleAttribute
280
     7
 91
        1
284
     1
  0
ACDSRECORD
 90
        0
  2
AcDbDs::ID
280
    10
320
22
  2
Thumbnail_Data
280
    15
 94
     3326
310
89504E470D0A1A0A0000000D49484452000001000000008808030000003F38C55500000300504C5445212830000000C8C8C80000000000000000000000000000000000000000000000000000330000660000990000CC0000FF0033000033330033660033990033CC0033FF0066000066330066660066990066CC0066FF0099
310
000099330099660099990099CC0099FF00CC0000CC3300CC6600CC9900CCCC00CCFF00FF0000FF3300FF6600FF9900FFCC00FFFF3300003300333300663300993300CC3300FF3333003333333333663333993333CC3333FF3366003366333366663366993366CC3366FF3399003399333399663399993399CC3399FF33CC00
310
33CC3333CC6633CC9933CCCC33CCFF33FF0033FF3333FF6633FF9933FFCC33FFFF6600006600336600666600996600CC6600FF6633006633336633666633996633CC6633FF6666006666336666666666996666CC6666FF6699006699336699666699996699CC6699FF66CC0066CC3366CC6666CC9966CCCC66CCFF66FF0066
310
FF3366FF6666FF9966FFCC66FFFF9900009900339900669900999900CC9900FF9933009933339933669933999933CC9933FF9966009966339966669966999966CC9966FF9999009999339999669999999999CC9999FF99CC0099CC3399CC6699CC9999CCCC99CCFF99FF0099FF3399FF6699FF9999FFCC99FFFFCC0000CC00
310
33CC0066CC0099CC00CCCC00FFCC3300CC3333CC3366CC3399CC33CCCC33FFCC6600CC6633CC6666CC6699CC66CCCC66FFCC9900CC9933CC9966CC9999CC99CCCC99FFCCCC00CCCC33CCCC66CCCC99CCCCCCCCCCFFCCFF00CCFF33CCFF66CCFF99CCFFCCCCFFFFFF0000FF0033FF0066FF0099FF00CCFF00FFFF3300FF3333
310
FF3366FF3399FF33CCFF33FFFF6600FF6633FF6666FF6699FF66CCFF66FFFF9900FF9933FF9966FF9999FF99CCFF99FFFFCC00FFCC33FFCC66FFCC99FFCCCCFFCCFFFFFF00FFFF33FFFF66FFFF99FFFFCCFFFFFF0000000D0D0D1A1A1A2828283535354343435050505D5D5D6B6B6B787878868686939393A1A1A1AEAEAEBB
310
BBBBC9C9C9D6D6D6E4E4E4F1F1F1FFFFFF000000000000000000000000000000000000000000000000000000000000B21171F6000009B94944415478DAED9D4982EB280C40751C6D72FFDDDFF435740DF66D03420360E30A64A67FA75209D8D6D30008EC02382CFF7D40817BCA7DAD5FA2FC00FC00FC00FC00FC007C0D004A
310
25BE81FDE70FC09702408204E20B002062FC5F7ECDE57D6300350CB927FB2E286900F173C0570A822201B1599E340005A0DB828546247C7500469E4373F6967DA07C7943A6E10B02802100C99CB32E2B4FEE92DADE85008FB68022069DC9D4894C9D9A369C0176CEAC0F431442207A388053A5B2C045B2B64007DEDCAA9FFA
310
3854BFE1660001C05CC66A0058AC1A3B0044F5A0DEB5BC43E9D37B730F80123FB5DA5D403E580D20EB08DB564D4E24C423007B6DAD71EBCD1D0068BC30942244D70148360DDAAEABEBF301FA004034E7CA9BE9300680963FCB9D5FE20F5A03C09B6A07005991927B1E02A8BD19DB86ECE54F221B0BC804680180A4572C6AC5
310
0300D888945D834617DB4392307B77A38591DF5B407E47B9653EFD0400512E517FB1EB960B589582A8F4481C32DE0C468F86626E4149D4AC766E957E4D5C19E3F6DF1400E02215740040AD52443E02F237CA2AB43BEFAFCA99A90140CBCF321718FC514107B32C0048423329C3AE017455CAE2687950E437BAE4263D00457E
310
DB4A38A4F114971900D098783C858A355AA68E4AF7AFA85FB9B873B180C08327D3D78A010882602D20B645A531980860BB5605BCA1542312D8F81C016879D08633EBCD2978F891B3184008BD56FBCBEC5EC0C80FB89F2088ABB1AF950B54210ACACF80E06677CA9F4B27C60613FF2175E5D726A00362FE6A0D80384E01AD55
310
AF5417A28C77866A72EBD509A67A707A342DB88DBB2026B3B7A48900D0DABFC88684B54E495C542C208E87D04C1A8C3FD7D51332EA010025B95C10FF5803C085E95A45C6A69509E4C01410A86B00BE7A25866B51C47543C16C3B41C1BE1B00223B00D8EE269EA7A353084154CA17D5062026C0169088803BBC3700D3F55B77
310
30E7BA1F001B80269EDCBA01A068088CB940BA28AA6A4B051B5FFAC80A20D34AFC88CFB502403C78097A5D00453FB1DEF65A421A75ED3902C5FC0F6A313C324516232B5454A602100F488E892C99571156261AEBC6AA10C003C02AA09543B701981652A495FA6CBE05901C3B94136EE7094EA440CA4331BD0A80FD5B535B69
310
0DF2A145148CE30D6B01B685B40A1580D2F27E0B40A4EDCAD102C8E7D9BEE019E05E6FAF18D0C22A2DB637DBF7BAF24821393E0D3691967BD33919A13E005B3FC4298255698EE9D602723E4B2AA7EAA05489682DA06E0142591B806D39292546C8914AEBD646A91C03D0C58014AC5C0C70959537AB10D23B7CA863808B0B33
310
63400100ECD21CA77C47AD650AD20B64F15A0008B0EA055478AF01806D21BD80E91B170108761C10BA00EC881942B35353E2F8C13D34F4A85BF8A1909B13AC03505D610340B9421EDA85CE48D0562E831899D3C440D93FBC6EE5E7C62B00B0EB190B68AF75A09B0B84E65CC0560637C84C438E0E003360F4AD32009A0F8040
310
036F4ED83969D498DED5733BCE0BCB2C56574F86DC6DA1120260AFAB423711801BAF4313401CE2987C5DBAC83E80007A4A5B06F4A1BD944AA8E641AA95C9072C01C01981626CD459EDC46E46A85759B40E62C7D00710C0593DA8689B83E002009CBFCDC4A90BC0A579417282ED959E3A23940C0C8F90F9B4B0CAA42C039097
310
6CF26A746FF12E677E543E4067859B958594CA907501E89493CE08490E621D00BBDEA5B2C24E458DA59EAE0BF0BA00F845BE2E00B219511504785D6021005E8A1300D40050521F41867CDD180095C1E415BE9E0B70FDCEBAC07200BC08CFABC42D00C55B825BEA6CD3A2E6DA201EDACCD1DAE062006E8384DF25E197D1CCEA
310
708F9633183A8801CA662A0B68D8CE020030FCA1780B6F006B03C89F2B832900E2122F3493EFFDFD014B0190BAA4532A224BC75EEA1D227A3F0AAF26776CC62F54C8568E85001ACBD507008EB73C554730F90FC46E8C556E63B708113C08C09805C40D0A579C8894F02321C66293CBD2B6330D40B31CC9447A2FC44500701C
310
04B53222006B276B005C0E82E4B6915E0530764E1F392AE779FC5E61EC957371F03A8046E4B0277D0680F6758FDBD04500D450C1FC2008F55C6046C1EAD01300007C17007C0400EA975EDB2156FD1DF4301435CEB9BE3E8083320280A81A2D3F19C075547F759AB6E3AC8D0103E5D100E02116B0BE8C52C2A1F2C900CEC320
310
BE9505D06297F901F86C00E7D53FFCE6E9EF05306C373F009FED021F10047F007E00DE04C0EDB4B8B6B7CB2D7E007E00DE2806CC4C0CFE00BC1D0079D4C95702384F5C3E7106598D8817B900EA7BE54F1334F9B2813E08807D5842FF4ACB4AD9CCF514BA40E09900483F7A809E14365700180D01FC48117C66D4586301E966
310
E93359787B20DA87847DC438200130BAEED4AAF2D823006EF3CA320B30D6DC0680983DC0B41802B021600A703BE6D2E206DC7A610C884F165121BED3FD651BC8BBC299C97B03C8E64FE20647A14D7C256D65C1B777816CD1FC6C9953A34E4FDF92ED7C23049416215BC0C8B4F22116C03A2F0FD73935EA74A779D9D1F8F600
310
C00338933FDE728EF9C6060C67C092E16EE596FF40C06DF84F09DC1AEFE601D0CFF2D100E01CC07E6B2BF2AE6E340F446C05C09EDAFE358B7CBC781CE000EC928C5800427AF2CEFE1A23A1F49FD49C1E5D05F0EF6100B003E074B31F06E6B0134004D93B0FEF06401E96C800CE7A01BEB719D3FDC79803827DDEE4EB03884F
310
D43365FF204F098F016C55C2BEA3373D3221B6C2E341503EEF69D41FCABA4E0450A6C1C0119D499C58003F77099207640B180590DE5655A4B304F5A37CCD7DE85417D0856F5139ED06503FF291C79177017016507EDEB85A1A3C2C0060841D943FDFE9591A846B00CAB420A959C6379A103300A695474FB30180033038BF45
310
B9BF29F582670321C8037816CA8DED0C00367F4818B2DC6A18391D40B9FA34AE1F1A09827EE8D94500B76300620170D393C815005407A81FDC32B26D4FDF16799A476A0378762F50132820C6F2E26536380420CC2B8BF201F6756C6560301F102DA056F865C9D76685392D32BA3682FC3456FC040007E358386E80A316507F
310
FC6200FE9EDEFE300069BDE7CAA24F990ACB1F921902D0587519DA53BB1A00FC0D00BD3B80BF2E720DB47B0700C377380D35C4771B072C2EBE1B6C2D18E804B019149AB4C9DA18B016409D2A3699801A402B6FF4C600EE290260E1E2E8B35DA0FAAEBFF7F04300344CDDB8BEA96E5ABE770C38580B3E591C9BB738FAA7BEE7
310
993140159C02E0FA7921CCB280FACB939D01EC2737C44D7C9CF15CE1E70018DC5FDD7201E024E94661460C08276A686DF9BE1B409F7AF1B2D6E7BE12CE180986D1FC9B82B1D0021EBF43A40088C3F6EF04202115C78CE05500C0A41890010C58C02C00AF341B7CCA38609E0B7CC050F80F66FFEE7381A9E7FD01B8AFF50794
310
6309FF0747B3FD132F0E9A9D0000000049454E44AE426082
  0
ENDSEC
  0
EOF
