  0
SECTION
  2
HEADER
  9
$ACADVER
  1
AC1032
  9
$ACADMAINTVER
 90
       55
  9
$DWGCODEPAGE
  3
ANSI_1252
  9
$LASTSAVEDBY
  1
binatti
  9
$CUSTOMPROPERTYTAG
  1
AmdtFileType
  9
$CUSTOMPROPERTY
  1
84
  9
$REQUIREDVERSIONS
160
                 0
  9
$INSBASE
 10
0.0
 20
0.0
 30
0.0
  9
$EXTMIN
 10
228.2305031506218
 20
416.1032239381823
 30
0.0
  9
$EXTMAX
 10
439.5255832119547
 20
651.0816319304961
 30
0.0
  9
$LIMMIN
 10
0.0
 20
0.0
  9
$LIMMAX
 10
420.0
 20
297.0
  9
$ORTHOMODE
 70
     0
  9
$REGENMODE
 70
     1
  9
$FILLMODE
 70
     1
  9
$QTEXTMODE
 70
     0
  9
$MIRRTEXT
 70
     1
  9
$LTSCALE
 40
15.0
  9
$ATTMODE
 70
     1
  9
$TEXTSIZE
 40
2.5
  9
$TRACEWID
 40
1.0
  9
$TEXTSTYLE
  7
Standard
  9
$CLAYER
  8
0
  9
$CELTYPE
  6
ByLayer
  9
$CECOLOR
 62
   256
  9
$CELTSCALE
 40
1.0
  9
$DISPSILH
 70
     0
  9
$DIMSCALE
 40
4.0
  9
$DIMASZ
 40
2.5
  9
$DIMEXO
 40
1.0
  9
$DIMDLI
 40
10.0
  9
$DIMRND
 40
0.0
  9
$DIMDLE
 40
0.0
  9
$DIMEXE
 40
1.0
  9
$DIMTP
 40
0.1
  9
$DIMTM
 40
0.1
  9
$DIMTXT
 40
3.5
  9
$DIMCEN
 40
0.0
  9
$DIMTSZ
 40
0.0
  9
$DIMTOL
 70
     0
  9
$DIMLIM
 70
     0
  9
$DIMTIH
 70
     0
  9
$DIMTOH
 70
     0
  9
$DIMSE1
 70
     0
  9
$DIMSE2
 70
     0
  9
$DIMTAD
 70
     1
  9
$DIMZIN
 70
     8
  9
$DIMBLK
  1

  9
$DIMASO
 70
     1
  9
$DIMSHO
 70
     1
  9
$DIMPOST
  1

  9
$DIMAPOST
  1
"
  9
$DIMALT
 70
     0
  9
$DIMALTD
 70
     2
  9
$DIMALTF
 40
0.0393701
  9
$DIMLFAC
 40
1.0
  9
$DIMTOFL
 70
     1
  9
$DIMTVP
 40
0.0
  9
$DIMTIX
 70
     0
  9
$DIMSOXD
 70
     0
  9
$DIMSAH
 70
     0
  9
$DIMBLK1
  1

  9
$DIMBLK2
  1

  9
$DIMSTYLE
  2
AM_ISO
  9
$DIMCLRD
 70
     3
  9
$DIMCLRE
 70
     3
  9
$DIMCLRT
 70
     2
  9
$DIMTFAC
 40
0.71
  9
$DIMGAP
 40
1.5
  9
$DIMJUST
 70
     0
  9
$DIMSD1
 70
     0
  9
$DIMSD2
 70
     0
  9
$DIMTOLJ
 70
     0
  9
$DIMTZIN
 70
     8
  9
$DIMALTZ
 70
     0
  9
$DIMALTTZ
 70
     0
  9
$DIMUPT
 70
     0
  9
$DIMDEC
 70
     1
  9
$DIMTDEC
 70
     2
  9
$DIMALTU
 70
     2
  9
$DIMALTTD
 70
     2
  9
$DIMTXSTY
  7
ROMANS
  9
$DIMAUNIT
 70
     0
  9
$DIMADEC
 70
     0
  9
$DIMALTRND
 40
0.0
  9
$DIMAZIN
 70
     2
  9
$DIMDSEP
 70
    46
  9
$DIMATFIT
 70
     3
  9
$DIMFRAC
 70
     0
  9
$DIMLDRBLK
  1

  9
$DIMLUNIT
 70
     2
  9
$DIMLWD
 70
    -1
  9
$DIMLWE
 70
    -1
  9
$DIMTMOVE
 70
     0
  9
$DIMFXL
 40
1.0
  9
$DIMFXLON
 70
     0
  9
$DIMJOGANG
 40
0.7853981633974483
  9
$DIMTFILL
 70
     0
  9
$DIMTFILLCLR
 70
     0
  9
$DIMARCSYM
 70
     0
  9
$DIMLTYPE
  6

  9
$DIMLTEX1
  6

  9
$DIMLTEX2
  6

  9
$DIMTXTDIRECTION
 70
     0
  9
$LUNITS
 70
     2
  9
$LUPREC
 70
     4
  9
$SKETCHINC
 40
1.0
  9
$FILLETRAD
 40
9.0
  9
$AUNITS
 70
     0
  9
$AUPREC
 70
     0
  9
$MENU
  1
.
  9
$ELEVATION
 40
0.0
  9
$PELEVATION
 40
0.0
  9
$THICKNESS
 40
0.0
  9
$LIMCHECK
 70
     0
  9
$CHAMFERA
 40
0.0
  9
$CHAMFERB
 40
0.0
  9
$CHAMFERC
 40
20.0
  9
$CHAMFERD
 40
0.0
  9
$SKPOLY
 70
     0
  9
$TDCREATE
 40
2451697.380812789
  9
$TDUCREATE
 40
2451697.297479456
  9
$TDUPDATE
 40
2460243.700873901
  9
$TDUUPDATE
 40
2460243.617540567
  9
$TDINDWG
 40
3.6782512037
  9
$TDUSRTIMER
 40
0.0008229398
  9
$USRTIMER
 70
     1
  9
$ANGBASE
 50
0.0
  9
$ANGDIR
 70
     0
  9
$PDMODE
 70
     0
  9
$PDSIZE
 40
0.0
  9
$PLINEWID
 40
0.0
  9
$SPLFRAME
 70
     0
  9
$SPLINETYPE
 70
     6
  9
$SPLINESEGS
 70
     8
  9
$HANDSEED
  5
299D1
  9
$SURFTAB1
 70
     6
  9
$SURFTAB2
 70
     6
  9
$SURFTYPE
 70
     6
  9
$SURFU
 70
     6
  9
$SURFV
 70
     6
  9
$UCSBASE
  2

  9
$UCSNAME
  2

  9
$UCSORG
 10
0.0
 20
0.0
 30
0.0
  9
$UCSXDIR
 10
1.0
 20
0.0000000000004043
 30
0.0
  9
$UCSYDIR
 10
-0.0000000000004043
 20
1.0
 30
0.0
  9
$UCSORTHOREF
  2

  9
$UCSORTHOVIEW
 70
     0
  9
$UCSORGTOP
 10
0.0
 20
0.0
 30
0.0
  9
$UCSORGBOTTOM
 10
0.0
 20
0.0
 30
0.0
  9
$UCSORGLEFT
 10
0.0
 20
0.0
 30
0.0
  9
$UCSORGRIGHT
 10
0.0
 20
0.0
 30
0.0
  9
$UCSORGFRONT
 10
0.0
 20
0.0
 30
0.0
  9
$UCSORGBACK
 10
0.0
 20
0.0
 30
0.0
  9
$PUCSBASE
  2

  9
$PUCSNAME
  2

  9
$PUCSORG
 10
0.0
 20
0.0
 30
0.0
  9
$PUCSXDIR
 10
1.0
 20
0.0
 30
0.0
  9
$PUCSYDIR
 10
0.0
 20
1.0
 30
0.0
  9
$PUCSORTHOREF
  2

  9
$PUCSORTHOVIEW
 70
     0
  9
$PUCSORGTOP
 10
0.0
 20
0.0
 30
0.0
  9
$PUCSORGBOTTOM
 10
0.0
 20
0.0
 30
0.0
  9
$PUCSORGLEFT
 10
0.0
 20
0.0
 30
0.0
  9
$PUCSORGRIGHT
 10
0.0
 20
0.0
 30
0.0
  9
$PUCSORGFRONT
 10
0.0
 20
0.0
 30
0.0
  9
$PUCSORGBACK
 10
0.0
 20
0.0
 30
0.0
  9
$USERI1
 70
     0
  9
$USERI2
 70
     0
  9
$USERI3
 70
     0
  9
$USERI4
 70
     0
  9
$USERI5
 70
     0
  9
$USERR1
 40
0.0
  9
$USERR2
 40
0.0
  9
$USERR3
 40
0.0
  9
$USERR4
 40
0.0
  9
$USERR5
 40
0.0
  9
$WORLDVIEW
 70
     1
  9
$SHADEDGE
 70
     3
  9
$SHADEDIF
 70
    70
  9
$TILEMODE
 70
     1
  9
$MAXACTVP
 70
    64
  9
$PINSBASE
 10
0.0
 20
0.0
 30
0.0
  9
$PLIMCHECK
 70
     0
  9
$PEXTMIN
 10
1.000000000000000E+20
 20
1.000000000000000E+20
 30
1.000000000000000E+20
  9
$PEXTMAX
 10
-1.000000000000000E+20
 20
-1.000000000000000E+20
 30
-1.000000000000000E+20
  9
$PLIMMIN
 10
0.0
 20
0.0
  9
$PLIMMAX
 10
0.0
 20
0.0
  9
$UNITMODE
 70
     0
  9
$VISRETAIN
 70
     1
  9
$PLINEGEN
 70
     0
  9
$PSLTSCALE
 70
     1
  9
$TREEDEPTH
 70
  3020
  9
$CMLSTYLE
  2
Standard
  9
$CMLJUST
 70
     0
  9
$CMLSCALE
 40
20.0
  9
$PROXYGRAPHICS
 70
     1
  9
$MEASUREMENT
 70
     1
  9
$CELWEIGHT
370
    -1
  9
$ENDCAPS
280
     0
  9
$JOINSTYLE
280
     0
  9
$LWDISPLAY
290
     0
  9
$INSUNITS
 70
     4
  9
$HYPERLINKBASE
  1

  9
$STYLESHEET
  1
monochrome.ctb
  9
$XEDIT
290
     1
  9
$CEPSNTYPE
380
     0
  9
$PSTYLEMODE
290
     1
  9
$FINGERPRINTGUID
  2
{6971FC40-378B-11D4-9C98-0060974E9C7C}
  9
$VERSIONGUID
  2
{43F461D0-0EDE-4CB3-8E69-0C64B6AF6163}
  9
$EXTNAMES
290
     1
  9
$PSVPSCALE
 40
0.0
  9
$OLESTARTUP
290
     0
  9
$SORTENTS
280
   127
  9
$INDEXCTL
280
     0
  9
$HIDETEXT
280
     0
  9
$XCLIPFRAME
280
     0
  9
$HALOGAP
280
     0
  9
$OBSCOLOR
 70
   257
  9
$OBSLTYPE
280
     0
  9
$INTERSECTIONDISPLAY
280
     0
  9
$INTERSECTIONCOLOR
 70
   257
  9
$DIMASSOC
280
     1
  9
$PROJECTNAME
  1

  9
$CAMERADISPLAY
290
     0
  9
$LENSLENGTH
 40
50.0
  9
$CAMERAHEIGHT
 40
0.0
  9
$STEPSPERSEC
 40
2.0
  9
$STEPSIZE
 40
6.0
  9
$3DDWFPREC
 40
2.0
  9
$PSOLWIDTH
 40
0.25
  9
$PSOLHEIGHT
 40
4.0
  9
$LOFTANG1
 40
1.570796326794897
  9
$LOFTANG2
 40
1.570796326794897
  9
$LOFTMAG1
 40
0.0
  9
$LOFTMAG2
 40
0.0
  9
$LOFTPARAM
 70
     7
  9
$LOFTNORMALS
280
     1
  9
$LATITUDE
 40
37.795
  9
$LONGITUDE
 40
-122.394
  9
$NORTHDIRECTION
 40
0.0
  9
$TIMEZONE
 70
 -8000
  9
$LIGHTGLYPHDISPLAY
280
     1
  9
$TILEMODELIGHTSYNCH
280
     1
  9
$CMATERIAL
347
241BE
  9
$SOLIDHIST
280
     1
  9
$SHOWHIST
280
     1
  9
$DWFFRAME
280
     2
  9
$DGNFRAME
280
     0
  9
$REALWORLDSCALE
290
     1
  9
$INTERFERECOLOR
 62
     1
  9
$INTERFEREVPVS
346
241C8
  9
$CSHADOW
280
     0
  9
$SHADOWPLANELOCATION
 40
0.0
  0
ENDSEC
  0
SECTION
  2
CLASSES
  0
CLASS
  1
ACDBDICTIONARYWDFLT
  2
AcDbDictionaryWithDefault
  3
ObjectDBX Classes
 90
        0
 91
        3
280
     0
281
     0
  0
CLASS
  1
ACDBPLACEHOLDER
  2
AcDbPlaceHolder
  3
ObjectDBX Classes
 90
        0
 91
        1
280
     0
281
     0
  0
CLASS
  1
LAYOUT
  2
AcDbLayout
  3
ObjectDBX Classes
 90
        0
 91
        1
280
     0
281
     0
  0
CLASS
  1
ACME_DOCUMENT
  2
AcMeDbDoc
  3
AcMeServices
 90
     1024
 91
        1
280
     1
281
     0
  0
CLASS
  1
ACMESCOPE
  2
AcMeScope
  3
AcMeServices
 90
     1024
 91
        1
280
     1
281
     0
  0
CLASS
  1
ACMECOMMANDHISTORY
  2
AcMeCommandHistory
  3
AcMeServices
 90
     1024
 91
        1
280
     1
281
     0
  0
CLASS
  1
DICTIONARYVAR
  2
AcDbDictionaryVar
  3
ObjectDBX Classes
 90
        0
 91
        3
280
     0
281
     0
  0
CLASS
  1
ACIMSYSVARMAN
  2
AcImSysVarManager
  3
AcMeServices
 90
     1024
 91
        1
280
     1
281
     0
  0
CLASS
  1
ACIMREALSYSVAR
  2
AcImRealSysVar
  3
AcMeServices
 90
     1024
 91
        1
280
     1
281
     0
  0
CLASS
  1
ACIMINTSYSVAR
  2
AcImIntSysVar
  3
AcMeServices
 90
     1024
 91
        1
280
     1
281
     0
  0
CLASS
  1
ACMEDRAWINGMAN
  2
AcMeDrawingMan
  3
AcMeServices
 90
     1024
 91
        1
280
     1
281
     0
  0
CLASS
  1
ACMEVIEW
  2
AcMeView
  3
AcMeServices
 90
     1024
 91
        1
280
     1
281
     0
  0
CLASS
  1
ACDBENTITYCACHE
  2
AcMeEntityCache
  3
AcMeServices
 90
     1024
 91
        1
280
     1
281
     0
  0
CLASS
  1
GSMANAGER
  2
AcMeGSManager
  3
AcMeServices
 90
     1024
 91
        1
280
     1
281
     0
  0
CLASS
  1
AMDTINTERNALREACTOR
  2
AmdtInternalReactor
  3
AcMeServices
 90
     1024
 91
        1
280
     1
281
     0
  0
CLASS
  1
ACMESTATEMGR
  2
AcMeStateMgr
  3
AcMeServices
 90
     1024
 91
        1
280
     1
281
     0
  0
CLASS
  1
ACME_DATABASE
  2
AcMeDbDatabase
  3
AcMeServices
 90
     1024
 91
        1
280
     1
281
     0
  0
CLASS
  1
ACRFINSADJUSTERMGR
  2
AcRfInsAdjusterMgr
  3
AcMeServices
 90
     1024
 91
        1
280
     1
281
     0
  0
CLASS
  1
AMGSETTINGSOBJ
  2
AmgSettingsObj
  3
"AcadM|Product Description: AutoCAD Mechanical|Company: Autodesk, Inc."
 90
     1024
 91
        1
280
     1
281
     0
  0
CLASS
  1
ACMDATADICTIONARY
  2
AcmDataDictionary
  3
"AcmSymBB|Product Description: AutoCAD Mechanical|Company: Autodesk, Inc."
 90
     1024
 91
        1
280
     1
281
     0
  0
CLASS
  1
ACMDATAENTRYBLOCK
  2
AcmDataEntryBlock
  3
AcmSymBB|Product Description: AutoCAD Mechanical|Company: Autodesk, Inc.
 90
     1024
 91
        1
280
     1
281
     0
  0
CLASS
  1
AMGOBJPROPCFG
  2
AmgObjPropCfg
  3
"AmgLay|Product Description: AutoCAD Mechanical|Company: Autodesk, Inc."
 90
     1024
 91
        1
280
     1
281
     0
  0
CLASS
  1
LAYER_INDEX
  2
AcDbLayerIndex
  3
ObjectDBX Classes
 90
        0
 91
        3
280
     0
281
     0
  0
CLASS
  1
IDBUFFER
  2
AcDbIdBuffer
  3
ObjectDBX Classes
 90
        0
 91
        3
280
     0
281
     0
  0
CLASS
  1
ACAMGFILTERDAT
  2
AcAmgFilterDat
  3
"AcadM|Product Description: AutoCAD Mechanical|Company: Autodesk, Inc."
 90
     1024
 91
        1
280
     1
281
     0
  0
CLASS
  1
ACMSTANDARDANSI
  2
AcmStandardANSI
  3
"Amdt_StdImp|Product Description: AutoCAD Mechanical|Company: Autodesk, Inc."
 90
     1024
 91
        1
280
     1
281
     0
  0
CLASS
  1
ACMSURFSTANDARDANSI
  2
AcmSurfTextStdANSI
  3
"Amdt_StdImp|Product Description: AutoCAD Mechanical|Company: Autodesk, Inc."
 90
     1024
 91
        1
280
     1
281
     0
  0
CLASS
  1
ACMFCFSTANDARDANSI
  2
AcmFCFStdANSI
  3
"Amdt_StdImp|Product Description: AutoCAD Mechanical|Company: Autodesk, Inc."
 90
     1024
 91
        1
280
     1
281
     0
  0
CLASS
  1
ACMWELDSTANDARDANSI
  2
AcmWeldingStdANSI
  3
"Amdt_StdImp|Product Description: AutoCAD Mechanical|Company: Autodesk, Inc."
 90
     1024
 91
        1
280
     1
281
     0
  0
CLASS
  1
ACMIDSTANDARDANSI
  2
AcmIdStdANSI
  3
"Amdt_StdImp|Product Description: AutoCAD Mechanical|Company: Autodesk, Inc."
 90
     1024
 91
        1
280
     1
281
     0
  0
CLASS
  1
ACMDATUMSTANDARDANSI
  2
AcmDatumStdANSI
  3
"Amdt_StdImp|Product Description: AutoCAD Mechanical|Company: Autodesk, Inc."
 90
     1024
 91
        1
280
     1
281
     0
  0
CLASS
  1
ACMBOMSTANDARDANSI
  2
AcmBOMStdANSI
  3
"Amdt_StdImp|Product Description: AutoCAD Mechanical|Company: Autodesk, Inc."
 90
     1024
 91
        1
280
     1
281
     0
  0
CLASS
  1
TABLESTYLE
  2
AcDbTableStyle
  3
ObjectDBX Classes
 90
     4095
 91
        3
280
     0
281
     0
  0
CLASS
  1
ACGREFMASTER
  2
AcGrefMaster
  3
AcAttribServices
 90
     1024
 91
        1
280
     1
281
     0
  0
CLASS
  1
AM_DRAWING_MGR
  2
AcDmDwgMgr
  3
AcMechDwgViewMgmt
 90
     1024
 91
        1
280
     1
281
     0
  0
CLASS
  1
AM_DWG_DOCUMENT
  2
AcDmDwgDocument
  3
AcMechDwgViewMgmt
 90
     1024
 91
        1
280
     1
281
     0
  0
CLASS
  1
AM_DWG_SHEET
  2
AcDmSheet
  3
AcMechDwgViewMgmt
 90
     1024
 91
        1
280
     1
281
     0
  0
CLASS
  1
AM_VIEWDIMPARMAP
  2
AcDmViewDimParMap
  3
AcMechDwgViewMgmt
 90
     1024
 91
        1
280
     1
281
     0
  0
CLASS
  1
AM_DWGMGR_NAME
  2
AcDmDwgMgrName
  3
AcMechDwgViewMgmt
 90
     1024
 91
        1
280
     1
281
     0
  0
CLASS
  1
ACGREFACADMASTER
  2
AcGrefacadMaster
  3
AcGrefServices
 90
     1024
 91
        1
280
     1
281
     0
  0
CLASS
  1
AMDTMENUSTATEMGR
  2
AmdtMenuStateMgr
  3
McadcomServices
 90
     1024
 91
        1
280
     1
281
     0
  0
CLASS
  1
AMDTMCOMMENUSTATE
  2
AmdtMcomMenuState
  3
McadcomServices
 90
     1024
 91
        1
280
     1
281
     0
  0
CLASS
  1
AMIMASTER
  2
AmiMaster
  3
AmiServices
 90
     1024
 91
        1
280
     1
281
     0
  0
CLASS
  1
MAPIAMMOUDLE
  2
MApiAmModule
  3
MApiAmServices
 90
     1024
 91
        1
280
     1
281
     0
  0
CLASS
  1
AMDTADMENUSTATE
  2
AmdtAdMenuState
  3
DesignerServices
 90
     1024
 91
        1
280
     1
281
     0
  0
CLASS
  1
ADAPPL
  2
AcAdAppl
  3
DesignerAssemblies
 90
     1024
 91
        1
280
     1
281
     0
  0
CLASS
  1
DEPMGR
  2
AcAdDepMgr
  3
DesignerAssemblies
 90
     1024
 91
        1
280
     1
281
     0
  0
CLASS
  1
PARAMMGR
  2
AcAdParamMgr
  3
DesignerAssemblies
 90
     1024
 91
        1
280
     1
281
     0
  0
CLASS
  1
PARAMSCOPE
  2
AcAdParamScope
  3
DesignerAssemblies
 90
     1024
 91
        1
280
     1
281
     0
  0
CLASS
  1
NAMEDAPPL
  2
AcAdNamedAppl
  3
DesignerAssemblies
 90
     1024
 91
        1
280
     1
281
     0
  0
CLASS
  1
AMDTDMMENUSTATE
  2
AmdtDmMenuState
  3
AcMechDwgViewMgmt
 90
     1024
 91
        1
280
     1
281
     0
  0
CLASS
  1
AMDTAMMENUSTATE
  2
AmdtAmMenuState
  3
DesignerAssemblies
 90
     1024
 91
        1
280
     1
281
     0
  0
CLASS
  1
ACIMSTRSYSVAR
  2
AcImStrSysVar
  3
AcMeServices
 90
     1024
 91
        1
280
     1
281
     0
  0
CLASS
  1
ACAMPROJECT
  2
AcAmProject
  3
DesignerAssemblies
 90
     1024
 91
        1
280
     1
281
     0
  0
CLASS
  1
ACAMGRCOMPDEF
  2
AcAmGrCompDef
  3
DesignerAssemblies
 90
     1024
 91
        1
280
     1
281
     0
  0
CLASS
  1
ACCMCONTEXT
  2
AcCmContext
  3
DesignerAssemblies
 90
     1024
 91
        1
280
     1
281
     0
  0
CLASS
  1
ACAMCOMPDEF
  2
AcAmCompDef
  3
DesignerAssemblies
 90
     1024
 91
        1
280
     1
281
     0
  0
CLASS
  1
ACAMCOMPDEFMGR
  2
AcAmCompDefMgr
  3
DesignerAssemblies
 90
     1024
 91
        1
280
     1
281
     0
  0
CLASS
  1
AMCONTEXTMGR
  2
AcAmContextMgr
  3
DesignerAssemblies
 90
     1024
 91
        1
280
     1
281
     0
  0
CLASS
  1
ACAMCONTEXTMODELER
  2
AcAmContextModeler
  3
DesignerAssemblies
 90
     1024
 91
        1
280
     1
281
     0
  0
CLASS
  1
ACAMGTITLESTD
  2
AcAmgTitleStd
  3
"AmgTitle|Product Description: AutoCAD Mechanical|Company: Autodesk, Inc."
 90
     1024
 91
        1
280
     1
281
     0
  0
CLASS
  1
ACMDETAILSTANDARDANSI
  2
AmdtDetailSymStdANSI
  3
"Amdt_StdImp|Product Description: AutoCAD Mechanical|Company: Autodesk, Inc."
 90
     1024
 91
        1
280
     1
281
     0
  0
CLASS
  1
ACMSECTIONSTANDARDANSI
  2
AmdtSectionSymStdANSI
  3
"Amdt_StdImp|Product Description: AutoCAD Mechanical|Company: Autodesk, Inc."
 90
     1024
 91
        1
280
     1
281
     0
  0
CLASS
  1
ACMCENTERLINESTANDARDANSI
  2
AmdtCenterLineStdANSI
  3
"Amdt_StdImp|Product Description: AutoCAD Mechanical|Company: Autodesk, Inc."
 90
     1024
 91
        1
280
     1
281
     0
  0
CLASS
  1
ACMTHREADLINESTANDARDANSI
  2
AmdtThreadLineStdANSI
  3
"Amdt_StdImp|Product Description: AutoCAD Mechanical|Company: Autodesk, Inc."
 90
     1024
 91
        1
280
     1
281
     0
  0
CLASS
  1
ACMNOTESTANDARDANSI
  2
AmdtNoteStdANSI
  3
"Amdt_StdImp|Product Description: AutoCAD Mechanical|Company: Autodesk, Inc."
 90
     1024
 91
        1
280
     1
281
     0
  0
CLASS
  1
AMDTNOTETEMPLATEDB
  2
AmdtNoteTemplateDB
  3
AcmSymBB|Product Description: AutoCAD Mechanical|Company: Autodesk, Inc.
 90
     1024
 91
        1
280
     1
281
     0
  0
CLASS
  1
ACAMGLAYSTD
  2
AcAmgLayStd
  3
"AmgLay|Product Description: AutoCAD Mechanical|Company: Autodesk, Inc."
 90
     1024
 91
        1
280
     1
281
     0
  0
CLASS
  1
ACAMGDIMSTD
  2
AcAmgDimStd
  3
"AmgDim|Product Description: AutoCAD Mechanical|Company: Autodesk, Inc."
 90
     1024
 91
        1
280
     1
281
     0
  0
CLASS
  1
ACAMGHOLECHARTSTDANSI
  2
AcAmgHoleChartStdANSI
  3
AmgDim|Product Description: AutoCAD Mechanical|Company: Autodesk, Inc.
 90
     1024
 91
        1
280
     1
281
     0
  0
CLASS
  1
CATALOGSTATE
  2
AcAmCatalogState
  3
DesignerAssemblies
 90
     1024
 91
        1
280
     1
281
     0
  0
CLASS
  1
ACAMGRCOMPDEFSET
  2
AcAmGrCompDefSet
  3
DesignerAssemblies
 90
     1024
 91
        1
280
     1
281
     0
  0
CLASS
  1
AMDTBROWSERDBTAB
  2
AmdtBrowserDbTab
  3
McadcomServices
 90
     1024
 91
        1
280
     1
281
     0
  0
CLASS
  1
CBROWSERAPPOBJECT
  2
CBrowserAppObject
  3
McadcomServices
 90
     1024
 91
        1
280
     1
281
     0
  0
CLASS
  1
DM_PLACEHOLDER
  2
AcDmSelsetPlaceholder
  3
McadcomServices
 90
     1024
 91
        1
280
     1
281
     0
  0
CLASS
  1
SORTENTSTABLE
  2
AcDbSortentsTable
  3
ObjectDBX Classes
 90
        0
 91
        3
280
     0
281
     0
  0
CLASS
  1
ACMSTANDARDISO
  2
AcmStandardISO
  3
"Amdt_StdImp|Product Description: AutoCAD Mechanical|Company: Autodesk, Inc."
 90
     1024
 91
        1
280
     1
281
     0
  0
CLASS
  1
AMDTEDGESTANDARDISO
  2
AmdtEdgeStdISO
  3
"Amdt_StdImp|Product Description: AutoCAD Mechanical|Company: Autodesk, Inc."
 90
     1024
 91
        1
280
     1
281
     0
  0
CLASS
  1
ACMSURFSTANDARDISO
  2
AcmSurfTextStdISO
  3
"Amdt_StdImp|Product Description: AutoCAD Mechanical|Company: Autodesk, Inc."
 90
     1024
 91
        1
280
     1
281
     0
  0
CLASS
  1
ACMFCFSTANDARDISO
  2
AcmFCFStdISO
  3
"Amdt_StdImp|Product Description: AutoCAD Mechanical|Company: Autodesk, Inc."
 90
     1024
 91
        1
280
     1
281
     0
  0
CLASS
  1
ACMWELDSTANDARDISO
  2
AcmWeldingStdISO
  3
"Amdt_StdImp|Product Description: AutoCAD Mechanical|Company: Autodesk, Inc."
 90
     1024
 91
        1
280
     1
281
     0
  0
CLASS
  1
ACMIDSTANDARDISO
  2
AcmIdStdISO
  3
"Amdt_StdImp|Product Description: AutoCAD Mechanical|Company: Autodesk, Inc."
 90
     1024
 91
        1
280
     1
281
     0
  0
CLASS
  1
ACMDATUMSTANDARDISO
  2
AcmDatumStdISO
  3
"Amdt_StdImp|Product Description: AutoCAD Mechanical|Company: Autodesk, Inc."
 90
     1024
 91
        1
280
     1
281
     0
  0
CLASS
  1
ACMBOMSTANDARDISO
  2
AcmBOMStdISO
  3
"Amdt_StdImp|Product Description: AutoCAD Mechanical|Company: Autodesk, Inc."
 90
     1024
 91
        1
280
     1
281
     0
  0
CLASS
  1
ACMDETAILSTANDARDISO
  2
AmdtDetailSymStdISO
  3
"Amdt_StdImp|Product Description: AutoCAD Mechanical|Company: Autodesk, Inc."
 90
     1024
 91
        1
280
     1
281
     0
  0
CLASS
  1
ACMSECTIONSTANDARDISO
  2
AmdtSectionSymStdISO
  3
"Amdt_StdImp|Product Description: AutoCAD Mechanical|Company: Autodesk, Inc."
 90
     1024
 91
        1
280
     1
281
     0
  0
CLASS
  1
ACMCENTERLINESTANDARDISO
  2
AmdtCenterLineStdISO
  3
"Amdt_StdImp|Product Description: AutoCAD Mechanical|Company: Autodesk, Inc."
 90
     1024
 91
        1
280
     1
281
     0
  0
CLASS
  1
ACMNOTESTANDARDISO
  2
AmdtNoteStdISO
  3
"Amdt_StdImp|Product Description: AutoCAD Mechanical|Company: Autodesk, Inc."
 90
     1024
 91
        1
280
     1
281
     0
  0
CLASS
  1
ACAMGHOLECHARTSTDISO
  2
AcAmgHoleChartStdISO
  3
AmgDim|Product Description: AutoCAD Mechanical|Company: Autodesk, Inc.
 90
     1024
 91
        1
280
     1
281
     0
  0
CLASS
  1
ACMTHREADLINESTANDARDISO
  2
AmdtThreadLineStdISO
  3
"Amdt_StdImp|Product Description: AutoCAD Mechanical|Company: Autodesk, Inc."
 90
     1024
 91
        1
280
     1
281
     0
  0
CLASS
  1
ACDBCIRCARCRES
  2
AcDbCircArcRes
  3
AcGrefServices
 90
     1024
 91
        1
280
     1
281
     0
  0
CLASS
  1
ACAMGHOLECHARTORIGIN
  2
AcAmgHoleChartOrigin
  3
"AmgDim|Product Description: AutoCAD Mechanical|Company: Autodesk, Inc."
 90
     1024
 91
        1
280
     1
281
     1
  0
CLASS
  1
ACMDIMBREAKPERSREACTOR
  2
AcmDimBreakPersReactor
  3
AmgDim|Product Description: AutoCAD Mechanical|Company: Autodesk, Inc.
 90
     1024
 91
        1
280
     1
281
     0
  0
CLASS
  1
IMAGEDEF
  2
AcDbRasterImageDef
  3
ISM
 90
        0
 91
        3
280
     0
281
     0
  0
CLASS
  1
RASTERVARIABLES
  2
AcDbRasterVariables
  3
ISM
 90
        0
 91
        3
280
     0
281
     0
  0
CLASS
  1
MATERIAL
  2
AcDbMaterial
  3
ObjectDBX Classes
 90
     1153
 91
        3
280
     0
281
     0
  0
CLASS
  1
VISUALSTYLE
  2
AcDbVisualStyle
  3
ObjectDBX Classes
 90
     4095
 91
        3
280
     0
281
     0
  0
CLASS
  1
ACRFATTGENMGR
  2
AcRfAttGeneralMgr
  3
AcAttribServices
 90
     1024
 91
        1
280
     1
281
     0
  0
CLASS
  1
ACRFOBJATTMGR
  2
AcRfObjAttGroupMgr
  3
AcAttribServices
 90
     1024
 91
        1
280
     1
281
     0
  0
CLASS
  1
ACRFMCADAPIATTHOLDER
  2
AcRfMCADAPIAttHolder
  3
AcAttribServices
 90
     1024
 91
        1
280
     1
281
     0
  0
CLASS
  1
AMDTSYSATTR
  2
AmdtSystemAttribute
  3
AcAttribServices
 90
     1024
 91
        1
280
     1
281
     0
  0
CLASS
  1
ACMTAPERSTANDARDANSI
  2
AcmTaperStdANSI
  3
"Amdt_StdImp|Product Description: AutoCAD Mechanical|Company: Autodesk, Inc."
 90
     1024
 91
        1
280
     1
281
     0
  0
CLASS
  1
ACMTAPERSTANDARDISO
  2
AcmTaperStdISO
  3
"Amdt_StdImp|Product Description: AutoCAD Mechanical|Company: Autodesk, Inc."
 90
     1024
 91
        1
280
     1
281
     0
  0
CLASS
  1
AMDTEDGESTANDARDISO13715
  2
AmdtEdgeStdISO13715
  3
"Amdt_StdImp|Product Description: AutoCAD Mechanical|Company: Autodesk, Inc."
 90
     1024
 91
        1
280
     1
281
     0
  0
CLASS
  1
SCALE
  2
AcDbScale
  3
ObjectDBX Classes
 90
     1153
 91
        3
280
     0
281
     0
  0
CLASS
  1
MLEADERSTYLE
  2
AcDbMLeaderStyle
  3
ACDB_MLEADERSTYLE_CLASS
 90
     4095
 91
        3
280
     0
281
     0
  0
CLASS
  1
ACMSURFSTANDARDISO2002
  2
AcmSurfTextStdISO2002
  3
"Amdt_StdImp|Product Description: AutoCAD Mechanical|Company: Autodesk, Inc."
 90
     1024
 91
        1
280
     1
281
     0
  0
CLASS
  1
ACMSECTIONSTANDARDISO2001
  2
AmdtSectionSymStdISO2001
  3
"Amdt_StdImp|Product Description: AutoCAD Mechanical|Company: Autodesk, Inc."
 90
     1024
 91
        1
280
     1
281
     0
  0
CLASS
  1
ACMANOOTATIONVIEWSTANDARDISO
  2
AmdtAnViewStdISO
  3
"Amdt_StdImp|Product Description: AutoCAD Mechanical|Company: Autodesk, Inc."
 90
     1024
 91
        1
280
     1
281
     0
  0
CLASS
  1
CAMSSTRUCTBTNSTATE
  2
StructBtnState
  3
DesignerAssemblies
 90
     1024
 91
        1
280
     1
281
     0
  0
CLASS
  1
CELLSTYLEMAP
  2
AcDbCellStyleMap
  3
ObjectDBX Classes
 90
     1152
 91
        3
280
     0
281
     0
  0
CLASS
  1
EXACXREFPANELOBJECT
  2
ExAcXREFPanelObject
  3
EXAC_ESW
 90
     1025
 91
        1
280
     1
281
     0
  0
CLASS
  1
NPOCOLLECTION
  2
AcDbImpNonPersistentObjectsCollection
  3
ObjectDBX Classes
 90
     1153
 91
        1
280
     1
281
     0
  0
CLASS
  1
SOLID_BACKGROUND
  2
AcDbSolidBackground
  3
SCENEOE
 90
     4095
 91
        3
280
     0
281
     0
  0
CLASS
  1
ACARRAYJIGENTITY
  2
AcArrayJigEntity
  3
ACAD_ARRAY
 90
      129
 91
        1
280
     1
281
     1
  0
CLASS
  1
ACDBASSOCNETWORK
  2
AcDbAssocNetwork
  3
ObjectDBX Classes
 90
     1025
 91
        3
280
     0
281
     0
  0
CLASS
  1
ACDBASSOCACTION
  2
AcDbAssocAction
  3
ObjectDBX Classes
 90
     1025
 91
        6
280
     0
281
     0
  0
CLASS
  1
ACDBASSOCARRAYACTIONBODY
  2
AcDbAssocArrayActionBody
  3
ObjectDBX Classes
 90
     1025
 91
        4
280
     0
281
     0
  0
CLASS
  1
ACDBASSOCVERTEXACTIONPARAM
  2
AcDbAssocVertexActionParam
  3
ObjectDBX Classes
 90
     1025
 91
        3
280
     0
281
     0
  0
CLASS
  1
ACDBASSOCDEPENDENCY
  2
AcDbAssocDependency
  3
ObjectDBX Classes
 90
     1025
 91
        5
280
     0
281
     0
  0
CLASS
  1
ACDBASSOCARRAYPOLARPARAMETERS
  2
AcDbAssocArrayPolarParameters
  3
ObjectDBX Classes
 90
     1025
 91
        3
280
     0
281
     0
  0
CLASS
  1
ACMANOOTATIONVIEWSTANDARDANSI
  2
AmdtAnViewStdANSI
  3
"Amdt_StdImp|Product Description: AutoCAD Mechanical|Company: Autodesk, Inc."
 90
     1024
 91
        1
280
     1
281
     0
  0
CLASS
  1
ACDBSECTIONVIEWSTYLE
  2
AcDbSectionViewStyle
  3
ObjectDBX Classes
 90
     1025
 91
        3
280
     0
281
     0
  0
CLASS
  1
ACDBDETAILVIEWSTYLE
  2
AcDbDetailViewStyle
  3
ObjectDBX Classes
 90
     1025
 91
        3
280
     0
281
     0
  0
CLASS
  1
SUN
  2
AcDbSun
  3
SCENEOE
 90
     1153
 91
        3
280
     0
281
     0
  0
CLASS
  1
BREAKDATA
  2
AcDbBreakData
  3
ObjectDBX Classes
 90
     1024
 91
        3
280
     0
281
     0
  0
ENDSEC
  0
SECTION
  2
TABLES
  0
TABLE
  2
VPORT
  5
8
102
{ACAD_XDICTIONARY
360
2427B
102
}
330
0
100
AcDbSymbolTable
 70
     1
  0
VPORT
  5
241BC
330
8
100
AcDbSymbolTableRecord
100
AcDbViewportTableRecord
  2
*Active
 70
     0
 10
0.0
 20
0.0
 11
1.0
 21
1.0
 12
-2283.636864268198
 22
-267.027927222284
 13
0.0
 23
0.0
 14
10.0
 24
10.0
 15
40.0
 25
40.0
 16
0.0
 26
0.0
 36
1.0
 17
2617.514907449487
 27
800.6203551566232
 37
0.0
 40
239.6779761521601
 41
1.774606299212598
 42
50.0
 43
0.0
 44
0.0
 50
0.0
 51
0.0
 71
    16
 72
  3000
 73
     1
 74
     0
 75
     0
 76
     0
 77
     0
 78
     0
281
     0
 65
     1
110
0.0
120
0.0
130
0.0
111
1.0
121
4.042745955709637E-13
131
0.0
112
-4.042745955709637E-13
122
1.0
132
0.0
 79
     0
146
0.0
348
241C7
 60
     3
 61
     5
292
     1
282
     1
141
0.0
142
0.0
 63
   250
421
  3355443
361
299C5
1001
ACAD_NAV_VCDISPLAY
1070
     3
  0
ENDTAB
  0
TABLE
  2
LTYPE
  5
5
330
0
100
AcDbSymbolTable
 70
     3
  0
LTYPE
  5
14
330
5
100
AcDbSymbolTableRecord
100
AcDbLinetypeTableRecord
  2
ByBlock
 70
     0
  3

 72
    65
 73
     0
 40
0.0
  0
LTYPE
  5
15
330
5
100
AcDbSymbolTableRecord
100
AcDbLinetypeTableRecord
  2
ByLayer
 70
     0
  3

 72
    65
 73
     0
 40
0.0
  0
LTYPE
  5
16
330
5
100
AcDbSymbolTableRecord
100
AcDbLinetypeTableRecord
  2
Continuous
 70
     0
  3
Solid line
 72
    65
 73
     0
 40
0.0
  0
LTYPE
  5
ECC
330
5
100
AcDbSymbolTableRecord
100
AcDbLinetypeTableRecord
  2
CENTER
 70
     0
  3
____ _ ____ _ ____ _ ____ _ ____ _ ____ _ ____ 
 72
    65
 73
     4
 40
2.0
 49
1.25
 74
     0
 49
-0.25
 74
     0
 49
0.25
 74
     0
 49
-0.25
 74
     0
  0
LTYPE
  5
2F4E
330
5
100
AcDbSymbolTableRecord
100
AcDbLinetypeTableRecord
  2
DOT
 70
     0
  3
. . . . . . . . . . . . . . . . . . . . . . . .
 72
    65
 73
     2
 40
0.25
 49
0.0
 74
     0
 49
-0.25
 74
     0
  0
ENDTAB
  0
TABLE
  2
LAYER
  5
2
102
{ACAD_XDICTIONARY
360
20B7A
102
}
330
0
100
AcDbSymbolTable
 70
     6
  0
LAYER
  5
10
102
{ACAD_XDICTIONARY
360
245A6
102
}
330
2
100
AcDbSymbolTableRecord
100
AcDbLayerTableRecord
  2
0
 70
     0
 62
     7
  6
Continuous
370
    -3
390
F
347
241C0
348
0
  0
LAYER
  5
ED3
102
{ACAD_XDICTIONARY
360
245AE
102
}
330
2
100
AcDbSymbolTableRecord
100
AcDbLayerTableRecord
  2
4
 70
     0
 62
     4
  6
Continuous
370
    -3
390
F
347
241C0
348
0
  0
LAYER
  5
ED4
330
2
100
AcDbSymbolTableRecord
100
AcDbLayerTableRecord
  2
Defpoints
 70
     0
 62
     7
  6
Continuous
290
     0
370
    -3
390
F
347
241C0
348
0
  0
LAYER
  5
F8C
102
{ACAD_XDICTIONARY
360
245B2
102
}
330
2
100
AcDbSymbolTableRecord
100
AcDbLayerTableRecord
  2
AM_5
 70
     0
 62
     3
  6
Continuous
370
    25
390
F
347
241C0
348
0
  0
LAYER
  5
1927E
102
{ACAD_XDICTIONARY
360
245F4
102
}
330
2
100
AcDbSymbolTableRecord
100
AcDbLayerTableRecord
  2
Visibile (ISO)
 70
     0
 62
     7
  6
Continuous
370
    50
390
F
347
241C0
348
0
  0
LAYER
  5
250C7
330
2
100
AcDbSymbolTableRecord
100
AcDbLayerTableRecord
  2
CARTIGLIO
 70
     0
 62
     7
  6
Continuous
370
    -3
390
F
347
241C0
348
0
  0
ENDTAB
  0
TABLE
  2
STYLE
  5
3
330
0
100
AcDbSymbolTable
 70
     3
  0
STYLE
  5
11
330
3
100
AcDbSymbolTableRecord
100
AcDbTextStyleTableRecord
  2
Standard
 70
     0
 40
0.0
 41
1.0
 50
0.0
 71
     0
 42
2.5
  3
ISOCP.SHX
  4

  0
STYLE
  5
ED6
330
3
100
AcDbSymbolTableRecord
100
AcDbTextStyleTableRecord
  2
ROMANS
 70
     0
 40
10.0
 41
0.9
 50
0.0
 71
     0
 42
10.0
  3
romans
  4

  0
STYLE
  5
250C8
330
3
100
AcDbSymbolTableRecord
100
AcDbTextStyleTableRecord
  2
VERDANA
 70
     0
 40
0.0
 41
1.0
 50
0.0
 71
     0
 42
3.5
  3
verdana.ttf
  4

1001
ACAD
1000
Verdana
1071
       34
  0
ENDTAB
  0
TABLE
  2
VIEW
  5
6
330
0
100
AcDbSymbolTable
 70
     1
  0
VIEW
  5
17B60
330
6
100
AcDbSymbolTableRecord
100
AcDbViewTableRecord
  2
OLE1
 70
     0
 40
3194.948357208526
 10
18124.8211261711
 20
4006.201417802634
 41
4895.94373417215
 11
0.0
 21
0.0
 31
1.0
 12
0.0
 22
0.0
 32
0.0
 42
50.0
 43
0.0
 44
0.0
 50
0.0
 71
     0
281
     0
 72
     0
 73
     0
348
241C7
  0
ENDTAB
  0
TABLE
  2
UCS
  5
7
330
0
100
AcDbSymbolTable
 70
     0
  0
ENDTAB
  0
TABLE
  2
APPID
  5
9
330
0
100
AcDbSymbolTable
 70
    58
  0
APPID
  5
12
330
9
100
AcDbSymbolTableRecord
100
AcDbRegAppTableRecord
  2
ACAD
 70
     0
  0
APPID
  5
2C
330
9
100
AcDbSymbolTableRecord
100
AcDbRegAppTableRecord
  2
MCAD_NO_VIS
 70
     0
  0
APPID
  5
2D
330
9
100
AcDbSymbolTableRecord
100
AcDbRegAppTableRecord
  2
ACAD_TEMP_GRAPHIC
 70
     0
  0
APPID
  5
ED8
330
9
100
AcDbSymbolTableRecord
100
AcDbRegAppTableRecord
  2
GENIUS_GENDTOL_13
 70
     0
  0
APPID
  5
ED9
330
9
100
AcDbSymbolTableRecord
100
AcDbRegAppTableRecord
  2
GENIUS_GENCFG_13
 70
     0
  0
APPID
  5
EDA
330
9
100
AcDbSymbolTableRecord
100
AcDbRegAppTableRecord
  2
GENIUS_GENCFG0_13
 70
     0
  0
APPID
  5
EDB
330
9
100
AcDbSymbolTableRecord
100
AcDbRegAppTableRecord
  2
GENIUS_GENCFG1_13
 70
     0
  0
APPID
  5
EDC
330
9
100
AcDbSymbolTableRecord
100
AcDbRegAppTableRecord
  2
GENIUS_GENCFG2_13
 70
     0
  0
APPID
  5
EDD
330
9
100
AcDbSymbolTableRecord
100
AcDbRegAppTableRecord
  2
GENIUS_GENCFG3_13
 70
     0
  0
APPID
  5
EDE
330
9
100
AcDbSymbolTableRecord
100
AcDbRegAppTableRecord
  2
GENIUS_GENCFG4_13
 70
     0
  0
APPID
  5
EDF
330
9
100
AcDbSymbolTableRecord
100
AcDbRegAppTableRecord
  2
GENIUS_GEVCFG0_13
 70
     0
  0
APPID
  5
EE0
330
9
100
AcDbSymbolTableRecord
100
AcDbRegAppTableRecord
  2
GENIUS_GENOENT_13
 70
     0
  0
APPID
  5
2AF2
330
9
100
AcDbSymbolTableRecord
100
AcDbRegAppTableRecord
  2
GENIUS_GENDIMSH_14
 70
     0
  0
APPID
  5
2F7B
330
9
100
AcDbSymbolTableRecord
100
AcDbRegAppTableRecord
  2
GEV_VCCNULL_SWITCH_OFF
 70
     0
  0
APPID
  5
2F7C
330
9
100
AcDbSymbolTableRecord
100
AcDbRegAppTableRecord
  2
GENIUS_GENHINW_13
 70
     0
  0
APPID
  5
2F7D
330
9
100
AcDbSymbolTableRecord
100
AcDbRegAppTableRecord
  2
GENIUS_GENOBJ_13
 70
     0
  0
APPID
  5
2F7E
330
9
100
AcDbSymbolTableRecord
100
AcDbRegAppTableRecord
  2
GENIUS_GENODEF_13
 70
     0
  0
APPID
  5
2F7F
330
9
100
AcDbSymbolTableRecord
100
AcDbRegAppTableRecord
  2
GENIUS_GENOLIS_13
 70
     0
  0
APPID
  5
2F80
330
9
100
AcDbSymbolTableRecord
100
AcDbRegAppTableRecord
  2
GENIUS_GENOREF_13
 70
     0
  0
APPID
  5
2F81
330
9
100
AcDbSymbolTableRecord
100
AcDbRegAppTableRecord
  2
GENIUS_GENOBJ-N-LEADER_13
 70
     0
  0
APPID
  5
2F82
330
9
100
AcDbSymbolTableRecord
100
AcDbRegAppTableRecord
  2
AD_DRAW
 70
     0
  0
APPID
  5
2F83
330
9
100
AcDbSymbolTableRecord
100
AcDbRegAppTableRecord
  2
DESIGNERASSEMBLIES
 70
     0
  0
APPID
  5
2F84
330
9
100
AcDbSymbolTableRecord
100
AcDbRegAppTableRecord
  2
ASURF_PCURVE_APPNAME
 70
     0
  0
APPID
  5
2F85
330
9
100
AcDbSymbolTableRecord
100
AcDbRegAppTableRecord
  2
GENIUS_GE3CFG0_13
 70
     0
  0
APPID
  5
2F86
330
9
100
AcDbSymbolTableRecord
100
AcDbRegAppTableRecord
  2
GENIUS_GENCFG5_13
 70
     0
  0
APPID
  5
2F87
330
9
100
AcDbSymbolTableRecord
100
AcDbRegAppTableRecord
  2
GENIUS_GE3MANIP_13
 70
     0
  0
APPID
  5
2F88
330
9
100
AcDbSymbolTableRecord
100
AcDbRegAppTableRecord
  2
GENIUS_GE3SECT_13
 70
     0
  0
APPID
  5
2F89
330
9
100
AcDbSymbolTableRecord
100
AcDbRegAppTableRecord
  2
GENIUS_GENTRA_14
 70
     0
  0
APPID
  5
2F8A
330
9
100
AcDbSymbolTableRecord
100
AcDbRegAppTableRecord
  2
GENIUS_GENSCREG_15
 70
     0
  0
APPID
  5
2F8B
330
9
100
AcDbSymbolTableRecord
100
AcDbRegAppTableRecord
  2
GENIUS_GENOBJ-N-SDF_13
 70
     0
  0
APPID
  5
4FEA
330
9
100
AcDbSymbolTableRecord
100
AcDbRegAppTableRecord
  2
DCO15
 70
     0
  0
APPID
  5
6AFA
330
9
100
AcDbSymbolTableRecord
100
AcDbRegAppTableRecord
  2
GENIUS_GENREC_13
 70
     0
  0
APPID
  5
6AFB
330
9
100
AcDbSymbolTableRecord
100
AcDbRegAppTableRecord
  2
GENIUS_GENOBJ-N-REC_13
 70
     0
  0
APPID
  5
E5B3
330
9
100
AcDbSymbolTableRecord
100
AcDbRegAppTableRecord
  2
ACATTRIBSERVICES
 70
     0
  0
APPID
  5
E5E5
330
9
100
AcDbSymbolTableRecord
100
AcDbRegAppTableRecord
  2
ACADM_DIM_EDIT
 70
     0
  0
APPID
  5
E5E6
330
9
100
AcDbSymbolTableRecord
100
AcDbRegAppTableRecord
  2
AMDT_DM_ADJ
 70
     0
  0
APPID
  5
136C7
330
9
100
AcDbSymbolTableRecord
100
AcDbRegAppTableRecord
  2
GENIUS_GENREC_14
 70
     0
  0
APPID
  5
151D0
330
9
100
AcDbSymbolTableRecord
100
AcDbRegAppTableRecord
  2
GENIUS_GENOBJ-N-FIL_13
 70
     0
  0
APPID
  5
17B61
330
9
100
AcDbSymbolTableRecord
100
AcDbRegAppTableRecord
  2
GENIUS_GENOBJ-N-HTC_13
 70
     0
  0
APPID
  5
17B62
330
9
100
AcDbSymbolTableRecord
100
AcDbRegAppTableRecord
  2
GENIUS_GENHATCH_13
 70
     0
  0
APPID
  5
17B63
330
9
100
AcDbSymbolTableRecord
100
AcDbRegAppTableRecord
  2
GENIUS_GENOBJ-N-CEN_13
 70
     0
  0
APPID
  5
17B64
330
9
100
AcDbSymbolTableRecord
100
AcDbRegAppTableRecord
  2
GENIUS_GENCEN_19
 70
     0
  0
APPID
  5
19F82
330
9
100
AcDbSymbolTableRecord
100
AcDbRegAppTableRecord
  2
ACAD_DSTYLE_DIMTEXT_FILL
 70
     0
  0
APPID
  5
2451E
330
9
100
AcDbSymbolTableRecord
100
AcDbRegAppTableRecord
  2
ACAD_MLEADERVER
 70
     0
  0
APPID
  5
24BED
330
9
100
AcDbSymbolTableRecord
100
AcDbRegAppTableRecord
  2
ACAD_EXEMPT_FROM_CAD_STANDARDS
 70
     0
  0
APPID
  5
24C13
330
9
100
AcDbSymbolTableRecord
100
AcDbRegAppTableRecord
  2
ACAD_DSTYLE_DIMINSPECT
 70
     0
  0
APPID
  5
24C7F
330
9
100
AcDbSymbolTableRecord
100
AcDbRegAppTableRecord
  2
ACAD_DSTYLE_DIMRADIAL_EXTENSION
 70
     0
  0
APPID
  5
24E22
330
9
100
AcDbSymbolTableRecord
100
AcDbRegAppTableRecord
  2
ACAD_NAV_VCDISPLAY
 70
     0
  0
APPID
  5
24E2E
330
9
100
AcDbSymbolTableRecord
100
AcDbRegAppTableRecord
  2
AcadAnnoPO
 70
     0
  0
APPID
  5
24F14
330
9
100
AcDbSymbolTableRecord
100
AcDbRegAppTableRecord
  2
ACAD_DSTYLE_DIMJAG
 70
     0
  0
APPID
  5
24F15
330
9
100
AcDbSymbolTableRecord
100
AcDbRegAppTableRecord
  2
ACAD_DSTYLE_DIMBREAK
 70
     0
  0
APPID
  5
250C9
330
9
100
AcDbSymbolTableRecord
100
AcDbRegAppTableRecord
  2
GENIUS_GENFIL_13
 70
     0
  0
APPID
  5
250CA
330
9
100
AcDbSymbolTableRecord
100
AcDbRegAppTableRecord
  2
GENIUS_GENOBJ-N-CHA_13
 70
     0
  0
APPID
  5
250CB
330
9
100
AcDbSymbolTableRecord
100
AcDbRegAppTableRecord
  2
AcAecLayerStandard
 70
     0
  0
APPID
  5
28BB0
330
9
100
AcDbSymbolTableRecord
100
AcDbRegAppTableRecord
  2
ACAD_DSTYLE_DIMANGULAR_EXTENSION
 70
     0
  0
APPID
  5
299C7
330
9
100
AcDbSymbolTableRecord
100
AcDbRegAppTableRecord
  2
FX_DIMP_FAV_VERSION
 70
     0
  0
APPID
  5
299CA
330
9
100
AcDbSymbolTableRecord
100
AcDbRegAppTableRecord
  2
PLOTTRANSPARENCY
 70
     0
  0
APPID
  5
299CD
330
9
100
AcDbSymbolTableRecord
100
AcDbRegAppTableRecord
  2
ENABLE_CUSTOM_SPLIT
 70
     0
  0
ENDTAB
  0
TABLE
  2
DIMSTYLE
  5
A
330
0
100
AcDbSymbolTable
 70
     6
100
AcDbDimStyleTable
  0
DIMSTYLE
105
2F71
330
A
100
AcDbSymbolTableRecord
100
AcDbDimStyleTableRecord
  2
STANDARD
 70
     0
178
     0
340
11
  0
DIMSTYLE
105
19282
330
A
100
AcDbSymbolTableRecord
100
AcDbDimStyleTableRecord
  2
AM_ISO
 70
     0
  4
"
 40
4.0
 41
2.5
 42
1.0
 43
10.0
 44
1.0
 47
0.1
 48
0.1
 73
     0
 74
     0
 77
     1
 78
     8
 79
     2
140
3.5
141
0.0
143
0.0393701
146
0.71
147
1.5
172
     1
176
     3
177
     3
271
     2
178
     2
271
     2
272
     2
283
     0
284
     8
340
ED6
371
    -1
372
    -1
  0
DIMSTYLE
105
19283
102
{ACAD_REACTORS
330
28B04
102
}
330
A
100
AcDbSymbolTableRecord
100
AcDbDimStyleTableRecord
  2
AM_ISO$3
 70
     0
  4
"
 40
4.0
 41
2.5
 42
1.0
 43
10.0
 44
1.0
 47
0.1
 48
0.1
 73
     0
 77
     1
 78
     8
 79
     2
140
3.5
141
0.0
143
0.0393701
146
0.71
147
1.5
176
     3
177
     3
271
     2
178
     2
271
     2
272
     2
283
     0
284
     8
288
     1
289
     0
340
ED6
371
    -1
372
    -1
  0
DIMSTYLE
105
19284
330
A
100
AcDbSymbolTableRecord
100
AcDbDimStyleTableRecord
  2
AM_ISO$4
 70
     0
  4
"
 40
4.0
 41
2.5
 42
1.0
 43
10.0
 44
1.0
 47
0.1
 48
0.1
 73
     0
 77
     1
 78
     8
 79
     2
140
3.5
141
0.0
143
0.0393701
146
0.71
147
1.5
176
     3
177
     3
271
     2
178
     2
271
     2
272
     2
283
     0
284
     8
288
     1
289
     0
340
ED6
371
    -1
372
    -1
  0
DIMSTYLE
105
19F65
102
{ACAD_REACTORS
330
289F8
102
}
330
A
100
AcDbSymbolTableRecord
100
AcDbDimStyleTableRecord
  2
AM_ISO$0
 70
     0
  4
"
 40
4.0
 41
2.5
 42
1.0
 43
10.0
 44
1.0
 47
0.1
 48
0.1
 73
     0
 74
     0
 77
     1
 78
     8
 79
     2
140
3.5
141
0.0
143
0.0393701
146
0.71
147
1.5
172
     1
176
     3
177
     3
271
     2
178
     2
271
     2
272
     2
283
     0
284
     8
340
ED6
371
    -1
372
    -1
  0
DIMSTYLE
105
1A0A6
102
{ACAD_REACTORS
330
29662
102
}
330
A
100
AcDbSymbolTableRecord
100
AcDbDimStyleTableRecord
  2
AM_ISO$2
 70
     0
  4
"
 40
4.0
 41
2.5
 42
1.0
 43
10.0
 44
1.0
 47
0.1
 48
0.1
 73
     0
 74
     0
 77
     1
 78
     8
 79
     2
140
3.5
141
0.0
143
0.0393701
146
0.71
147
1.5
172
     1
176
     3
177
     3
271
     2
178
     2
271
     2
272
     2
283
     0
284
     8
340
ED6
371
    -1
372
    -1
  0
ENDTAB
  0
TABLE
  2
BLOCK_RECORD
  5
1
330
0
100
AcDbSymbolTable
 70
    19
  0
BLOCK_RECORD
  5
1F
102
{ACAD_XDICTIONARY
360
55
102
}
330
1
100
AcDbSymbolTableRecord
100
AcDbBlockTableRecord
  2
*Model_Space
340
22
 70
     0
280
     1
281
     0
  0
BLOCK_RECORD
  5
1B
330
1
100
AcDbSymbolTableRecord
100
AcDbBlockTableRecord
  2
*Paper_Space
340
1E
 70
     0
280
     1
281
     0
  0
BLOCK_RECORD
  5
23
330
1
100
AcDbSymbolTableRecord
100
AcDbBlockTableRecord
  2
*Paper_Space0
340
26
 70
     0
280
     1
281
     0
  0
BLOCK_RECORD
  5
289C8
330
1
100
AcDbSymbolTableRecord
100
AcDbBlockTableRecord
  2
*D9
340
0
 70
     0
280
     1
281
     0
  0
BLOCK_RECORD
  5
289F9
330
1
100
AcDbSymbolTableRecord
100
AcDbBlockTableRecord
  2
*D10
340
0
 70
     0
280
     1
281
     0
  0
BLOCK_RECORD
  5
28A2A
330
1
100
AcDbSymbolTableRecord
100
AcDbBlockTableRecord
  2
*D11
340
0
 70
     0
280
     1
281
     0
  0
BLOCK_RECORD
  5
28A5B
330
1
100
AcDbSymbolTableRecord
100
AcDbBlockTableRecord
  2
*D12
340
0
 70
     0
280
     1
281
     0
  0
BLOCK_RECORD
  5
28A8C
330
1
100
AcDbSymbolTableRecord
100
AcDbBlockTableRecord
  2
*D13
340
0
 70
     0
280
     1
281
     0
  0
BLOCK_RECORD
  5
28ABD
330
1
100
AcDbSymbolTableRecord
100
AcDbBlockTableRecord
  2
*D14
340
0
 70
     0
280
     1
281
     0
  0
BLOCK_RECORD
  5
28AE7
330
1
100
AcDbSymbolTableRecord
100
AcDbBlockTableRecord
  2
*D15
340
0
 70
     0
280
     1
281
     0
  0
BLOCK_RECORD
  5
28B05
330
1
100
AcDbSymbolTableRecord
100
AcDbBlockTableRecord
  2
*D16
340
0
 70
     0
280
     1
281
     0
  0
BLOCK_RECORD
  5
28B23
330
1
100
AcDbSymbolTableRecord
100
AcDbBlockTableRecord
  2
*D17
340
0
 70
     0
280
     1
281
     0
  0
BLOCK_RECORD
  5
28B41
330
1
100
AcDbSymbolTableRecord
100
AcDbBlockTableRecord
  2
*D18
340
0
 70
     0
280
     1
281
     0
  0
BLOCK_RECORD
  5
28BD0
330
1
100
AcDbSymbolTableRecord
100
AcDbBlockTableRecord
  2
*D19
340
0
 70
     0
280
     1
281
     0
  0
BLOCK_RECORD
  5
28C1C
330
1
100
AcDbSymbolTableRecord
100
AcDbBlockTableRecord
  2
*D20
340
0
 70
     0
280
     1
281
     0
  0
BLOCK_RECORD
  5
28CB4
330
1
100
AcDbSymbolTableRecord
100
AcDbBlockTableRecord
  2
*D21
340
0
 70
     0
280
     1
281
     0
  0
BLOCK_RECORD
  5
28CE4
330
1
100
AcDbSymbolTableRecord
100
AcDbBlockTableRecord
  2
*D22
340
0
 70
     0
280
     1
281
     0
  0
BLOCK_RECORD
  5
29605
330
1
100
AcDbSymbolTableRecord
100
AcDbBlockTableRecord
  2
*D38
340
0
 70
     0
280
     1
281
     0
  0
BLOCK_RECORD
  5
29663
330
1
100
AcDbSymbolTableRecord
100
AcDbBlockTableRecord
  2
*D39
340
0
 70
     0
280
     1
281
     0
  0
BLOCK_RECORD
  5
296A4
330
1
100
AcDbSymbolTableRecord
100
AcDbBlockTableRecord
  2
*D40
340
0
 70
     0
280
     1
281
     0
  0
BLOCK_RECORD
  5
296E5
330
1
100
AcDbSymbolTableRecord
100
AcDbBlockTableRecord
  2
*D41
340
0
 70
     0
280
     1
281
     0
  0
ENDTAB
  0
ENDSEC
  0
SECTION
  2
BLOCKS
  0
BLOCK
  5
20
330
1F
100
AcDbEntity
  8
0
100
AcDbBlockBegin
  2
*Model_Space
 70
     0
 10
0.0
 20
0.0
 30
0.0
  3
*Model_Space
  1

  0
ENDBLK
  5
21
330
1F
100
AcDbEntity
  8
0
100
AcDbBlockEnd
  0
BLOCK
  5
1C
330
1B
100
AcDbEntity
 67
     1
  8
0
100
AcDbBlockBegin
  2
*Paper_Space
 70
     0
 10
0.0
 20
0.0
 30
0.0
  3
*Paper_Space
  1

  0
ENDBLK
  5
1D
330
1B
100
AcDbEntity
 67
     1
  8
0
100
AcDbBlockEnd
  0
BLOCK
  5
24
330
23
100
AcDbEntity
  8
0
100
AcDbBlockBegin
  2
*Paper_Space0
 70
     0
 10
0.0
 20
0.0
 30
0.0
  3
*Paper_Space0
  1

  0
ENDBLK
  5
25
330
23
100
AcDbEntity
  8
0
100
AcDbBlockEnd
  0
BLOCK
  5
289C9
330
289C8
100
AcDbEntity
  8
0
100
AcDbBlockBegin
  2
*D9
 70
     1
 10
0.0
 20
0.0
 30
0.0
  3
*D9
  1

  0
LINE
  5
29443
330
289C8
100
AcDbEntity
  8
AM_5
 62
     3
440
 16777216
100
AcDbLine
 10
49.17154622720714
 20
551.3675039842445
 30
0.0
 11
49.17154622726081
 21
418.6225389627468
 31
0.0
  0
LINE
  5
29444
330
289C8
100
AcDbEntity
  8
AM_5
 62
     3
440
 16777216
100
AcDbLine
 10
159.1715462272071
 20
551.3675039843333
 30
0.0
 11
159.1715462272608
 21
418.6225389627912
 31
0.0
  0
LINE
  5
29445
330
289C8
100
AcDbEntity
  8
AM_5
 62
     3
440
 16777216
100
AcDbLine
 10
59.1715462272592
 20
422.6225389627508
 30
0.0
 11
149.1715462272592
 21
422.6225389627872
 31
0.0
  0
SOLID
  5
29446
330
289C8
100
AcDbEntity
  8
AM_5
 62
     3
440
 16777216
100
AcDbTrace
 10
59.17154622725852
 20
424.2892056294175
 30
0.0
 11
59.17154622725987
 21
420.9558722960841
 31
0.0
 12
49.1715462272592
 22
422.6225389627468
 32
0.0
 13
49.1715462272592
 23
422.6225389627468
 33
0.0
  0
SOLID
  5
29447
330
289C8
100
AcDbEntity
  8
AM_5
 62
     3
440
 16777216
100
AcDbTrace
 10
149.1715462272585
 20
424.2892056294539
 30
0.0
 11
149.1715462272599
 21
420.9558722961205
 31
0.0
 12
159.1715462272592
 22
422.6225389627912
 32
0.0
 13
159.1715462272592
 23
422.6225389627912
 33
0.0
  0
MTEXT
  5
29448
330
289C8
100
AcDbEntity
  8
AM_5
 62
     2
440
 16777216
100
AcDbMText
 10
104.1715462272627
 20
433.622538962769
 30
0.0
 40
10.0
 41
0.0
 46
0.0
 71
     5
 72
     1
  1
%%c110
  7
ROMANS
 73
     1
 44
1.0
  0
POINT
  5
29449
330
289C8
100
AcDbEntity
  8
Defpoints
 62
     0
440
 16777216
100
AcDbPoint
 10
49.1715462274301
 20
555.3675039842246
 30
0.0
  0
POINT
  5
2944A
330
289C8
100
AcDbEntity
  8
Defpoints
 62
     0
440
 16777216
100
AcDbPoint
 10
159.1715462274301
 20
555.367503984269
 30
0.0
  0
POINT
  5
2944B
330
289C8
100
AcDbEntity
  8
Defpoints
 62
     0
440
 16777216
100
AcDbPoint
 10
159.1715462274301
 20
422.6225389627269
 30
0.0
  0
ENDBLK
  5
289CA
330
289C8
100
AcDbEntity
  8
0
100
AcDbBlockEnd
  0
BLOCK
  5
289FA
330
289F9
100
AcDbEntity
  8
0
100
AcDbBlockBegin
  2
*D10
 70
     1
 10
0.0
 20
0.0
 30
0.0
  3
*D10
  1

  0
LINE
  5
29757
330
289F9
100
AcDbEntity
  8
AM_5
 62
     3
440
 16777216
100
AcDbLine
 10
276.3283826972691
 20
551.3675039844283
 30
0.0
 11
276.3283826973238
 21
416.1032239381823
 31
0.0
  0
LINE
  5
29758
330
289F9
100
AcDbEntity
  8
AM_5
 62
     3
440
 16777216
100
AcDbLine
 10
407.3283826972691
 20
551.3675039845342
 30
0.0
 11
407.3283826973238
 21
416.1032239382353
 31
0.0
  0
LINE
  5
29759
330
289F9
100
AcDbEntity
  8
AM_5
 62
     3
440
 16777216
100
AcDbLine
 10
286.3283826973222
 20
420.1032239381863
 30
0.0
 11
397.3283826973222
 21
420.1032239382312
 31
0.0
  0
SOLID
  5
2975A
330
289F9
100
AcDbEntity
  8
AM_5
 62
     3
440
 16777216
100
AcDbTrace
 10
286.3283826973216
 20
421.769890604853
 30
0.0
 11
286.3283826973229
 21
418.4365572715196
 31
0.0
 12
276.3283826973222
 22
420.1032239381823
 32
0.0
 13
276.3283826973222
 23
420.1032239381823
 33
0.0
  0
SOLID
  5
2975B
330
289F9
100
AcDbEntity
  8
AM_5
 62
     3
440
 16777216
100
AcDbTrace
 10
397.3283826973216
 20
421.7698906048979
 30
0.0
 11
397.3283826973229
 21
418.4365572715645
 31
0.0
 12
407.3283826973222
 22
420.1032239382353
 32
0.0
 13
407.3283826973222
 23
420.1032239382353
 33
0.0
  0
MTEXT
  5
2975C
330
289F9
100
AcDbEntity
  8
AM_5
 62
     2
440
 16777216
100
AcDbMText
 10
341.8283826973177
 20
431.1032239382088
 30
0.0
 40
10.0
 41
0.0
 46
0.0
 71
     5
 72
     1
  1
%%c131
  7
ROMANS
 73
     1
 44
1.0
  0
POINT
  5
2975D
330
289F9
100
AcDbEntity
  8
Defpoints
 62
     0
440
 16777216
100
AcDbPoint
 10
276.3283826974921
 20
555.3675039843165
 30
0.0
  0
POINT
  5
2975E
330
289F9
100
AcDbEntity
  8
Defpoints
 62
     0
440
 16777216
100
AcDbPoint
 10
407.3283826974921
 20
555.3675039843695
 30
0.0
  0
POINT
  5
2975F
330
289F9
100
AcDbEntity
  8
Defpoints
 62
     0
440
 16777216
100
AcDbPoint
 10
407.3283826974921
 20
420.1032239380705
 30
0.0
  0
ENDBLK
  5
289FB
330
289F9
100
AcDbEntity
  8
0
100
AcDbBlockEnd
  0
BLOCK
  5
28A2B
330
28A2A
100
AcDbEntity
  8
0
100
AcDbBlockBegin
  2
*D11
 70
     1
 10
0.0
 20
0.0
 30
0.0
  3
*D11
  1

  0
LINE
  5
29455
330
28A2A
100
AcDbEntity
  8
AM_5
 62
     3
440
 16777216
100
AcDbLine
 10
518.5329805875934
 20
551.3675039846239
 30
0.0
 11
518.5329805876531
 21
403.6244331638741
 31
0.0
  0
LINE
  5
29456
330
28A2A
100
AcDbEntity
  8
AM_5
 62
     3
440
 16777216
100
AcDbLine
 10
670.5329805875934
 20
551.3675039847468
 30
0.0
 11
670.5329805876531
 21
403.6244331639355
 31
0.0
  0
LINE
  5
29457
330
28A2A
100
AcDbEntity
  8
AM_5
 62
     3
440
 16777216
100
AcDbLine
 10
528.5329805876515
 20
407.6244331638781
 30
0.0
 11
660.5329805876515
 21
407.6244331639315
 31
0.0
  0
SOLID
  5
29458
330
28A2A
100
AcDbEntity
  8
AM_5
 62
     3
440
 16777216
100
AcDbTrace
 10
528.5329805876509
 20
409.2910998305448
 30
0.0
 11
528.5329805876522
 21
405.9577664972114
 31
0.0
 12
518.5329805876515
 22
407.6244331638741
 32
0.0
 13
518.5329805876515
 23
407.6244331638741
 33
0.0
  0
SOLID
  5
29459
330
28A2A
100
AcDbEntity
  8
AM_5
 62
     3
440
 16777216
100
AcDbTrace
 10
660.5329805876509
 20
409.2910998305982
 30
0.0
 11
660.5329805876522
 21
405.9577664972648
 31
0.0
 12
670.5329805876515
 22
407.6244331639355
 32
0.0
 13
670.5329805876515
 23
407.6244331639355
 33
0.0
  0
MTEXT
  5
2945A
330
28A2A
100
AcDbEntity
  8
AM_5
 62
     2
440
 16777216
100
AcDbMText
 10
594.5329805876471
 20
418.6244331639048
 30
0.0
 40
10.0
 41
0.0
 46
0.0
 71
     5
 72
     1
  1
%%c152
  7
ROMANS
 73
     1
 44
1.0
  0
POINT
  5
2945B
330
28A2A
100
AcDbEntity
  8
Defpoints
 62
     0
440
 16777216
100
AcDbPoint
 10
518.5329805878164
 20
555.3675039844143
 30
0.0
  0
POINT
  5
2945C
330
28A2A
100
AcDbEntity
  8
Defpoints
 62
     0
440
 16777216
100
AcDbPoint
 10
670.5329805878164
 20
555.3675039844757
 30
0.0
  0
POINT
  5
2945D
330
28A2A
100
AcDbEntity
  8
Defpoints
 62
     0
440
 16777216
100
AcDbPoint
 10
670.5329805878164
 20
407.6244331636644
 30
0.0
  0
ENDBLK
  5
28A2C
330
28A2A
100
AcDbEntity
  8
0
100
AcDbBlockEnd
  0
BLOCK
  5
28A5C
330
28A5B
100
AcDbEntity
  8
0
100
AcDbBlockBegin
  2
*D12
 70
     1
 10
0.0
 20
0.0
 30
0.0
  3
*D12
  1

  0
LINE
  5
29723
330
28A5B
100
AcDbEntity
  8
AM_5
 62
     3
440
 16777216
100
AcDbLine
 10
779.8244707402636
 20
551.3675039848354
 30
0.0
 11
779.8244707403302
 21
386.6931648542907
 31
0.0
  0
LINE
  5
29724
330
28A5B
100
AcDbEntity
  8
AM_5
 62
     3
440
 16777216
100
AcDbLine
 10
973.824470740264
 20
551.3675039849923
 30
0.0
 11
973.8244707403306
 21
386.6931648543691
 31
0.0
  0
LINE
  5
29725
330
28A5B
100
AcDbEntity
  8
AM_5
 62
     3
440
 16777216
100
AcDbLine
 10
789.8244707403285
 20
390.6931648542948
 30
0.0
 11
963.8244707403289
 21
390.6931648543651
 31
0.0
  0
SOLID
  5
29726
330
28A5B
100
AcDbEntity
  8
AM_5
 62
     3
440
 16777216
100
AcDbTrace
 10
789.8244707403278
 20
392.3598315209614
 30
0.0
 11
789.8244707403292
 21
389.0264981876281
 31
0.0
 12
779.8244707403285
 22
390.6931648542907
 32
0.0
 13
779.8244707403285
 23
390.6931648542907
 33
0.0
  0
SOLID
  5
29727
330
28A5B
100
AcDbEntity
  8
AM_5
 62
     3
440
 16777216
100
AcDbTrace
 10
963.8244707403283
 20
392.3598315210318
 30
0.0
 11
963.8244707403296
 21
389.0264981876984
 31
0.0
 12
973.8244707403289
 22
390.6931648543691
 32
0.0
 13
973.8244707403289
 23
390.6931648543691
 33
0.0
  0
MTEXT
  5
29728
330
28A5B
100
AcDbEntity
  8
AM_5
 62
     2
440
 16777216
100
AcDbMText
 10
876.8244707403243
 20
401.6931648543299
 30
0.0
 40
10.0
 41
0.0
 46
0.0
 71
     5
 72
     1
  1
%%c194
  7
ROMANS
 73
     1
 44
1.0
  0
POINT
  5
29729
330
28A5B
100
AcDbEntity
  8
Defpoints
 62
     0
440
 16777216
100
AcDbPoint
 10
779.8244707404865
 20
555.36750398452
 30
0.0
  0
POINT
  5
2972A
330
28A5B
100
AcDbEntity
  8
Defpoints
 62
     0
440
 16777216
100
AcDbPoint
 10
973.824470740487
 20
555.3675039845984
 30
0.0
  0
POINT
  5
2972B
330
28A5B
100
AcDbEntity
  8
Defpoints
 62
     0
440
 16777216
100
AcDbPoint
 10
973.824470740487
 20
390.6931648539754
 30
0.0
  0
ENDBLK
  5
28A5D
330
28A5B
100
AcDbEntity
  8
0
100
AcDbBlockEnd
  0
BLOCK
  5
28A8D
330
28A8C
100
AcDbEntity
  8
0
100
AcDbBlockBegin
  2
*D13
 70
     1
 10
0.0
 20
0.0
 30
0.0
  3
*D13
  1

  0
LINE
  5
297CC
330
28A8C
100
AcDbEntity
  8
AM_5
 62
     3
440
 16777216
100
AcDbLine
 10
62.30053290552515
 20
187.8962213313106
 30
0.0
 11
62.30053290559567
 21
13.45271587578072
 31
0.0
  0
LINE
  5
297CD
330
28A8C
100
AcDbEntity
  8
AM_5
 62
     3
440
 16777216
100
AcDbLine
 10
256.3005329055251
 20
187.8962213314674
 30
0.0
 11
256.3005329055957
 21
13.45271587585917
 31
0.0
  0
LINE
  5
297CE
330
28A8C
100
AcDbEntity
  8
AM_5
 62
     3
440
 16777216
100
AcDbLine
 10
72.30053290559405
 20
17.45271587578476
 30
0.0
 11
246.3005329055941
 21
17.45271587585512
 31
0.0
  0
SOLID
  5
297CF
330
28A8C
100
AcDbEntity
  8
AM_5
 62
     3
440
 16777216
100
AcDbTrace
 10
72.30053290559339
 20
19.11938254245143
 30
0.0
 11
72.30053290559474
 21
15.7860492091181
 31
0.0
 12
62.30053290559406
 22
17.45271587578072
 32
0.0
 13
62.30053290559406
 23
17.45271587578072
 33
0.0
  0
SOLID
  5
297D0
330
28A8C
100
AcDbEntity
  8
AM_5
 62
     3
440
 16777216
100
AcDbTrace
 10
246.3005329055934
 20
19.11938254252179
 30
0.0
 11
246.3005329055947
 21
15.78604920918846
 31
0.0
 12
256.3005329055941
 22
17.45271587585917
 32
0.0
 13
256.3005329055941
 23
17.45271587585917
 33
0.0
  0
MTEXT
  5
297D1
330
28A8C
100
AcDbEntity
  8
AM_5
 62
     2
440
 16777216
100
AcDbMText
 10
159.3005329056007
 20
28.45271587581994
 30
0.0
 40
10.0
 41
0.0
 46
0.0
 71
     5
 72
     1
  1
%%c194
  7
ROMANS
 73
     1
 44
1.0
  0
POINT
  5
297D2
330
28A8C
100
AcDbEntity
  8
Defpoints
 62
     0
440
 16777216
100
AcDbPoint
 10
62.30053290560113
 20
191.8962213312854
 30
0.0
  0
POINT
  5
297D3
330
28A8C
100
AcDbEntity
  8
Defpoints
 62
     0
440
 16777216
100
AcDbPoint
 10
256.3005329056011
 20
191.8962213313638
 30
0.0
  0
POINT
  5
297D4
330
28A8C
100
AcDbEntity
  8
Defpoints
 62
     0
440
 16777216
100
AcDbPoint
 10
256.3005329056011
 20
17.45271587575553
 30
0.0
  0
ENDBLK
  5
28A8E
330
28A8C
100
AcDbEntity
  8
0
100
AcDbBlockEnd
  0
BLOCK
  5
28ABE
330
28ABD
100
AcDbEntity
  8
0
100
AcDbBlockBegin
  2
*D14
 70
     1
 10
0.0
 20
0.0
 30
0.0
  3
*D14
  1

  0
LINE
  5
29470
330
28ABD
100
AcDbEntity
  8
AM_5
 62
     3
440
 16777216
100
AcDbLine
 10
777.8857378776178
 20
634.469207616693
 30
0.0
 11
766.1994440002242
 21
643.8124216249698
 31
0.0
  0
LINE
  5
29471
330
28ABD
100
AcDbEntity
  8
AM_5
 62
     3
440
 16777216
100
AcDbLine
 10
766.1994440002242
 20
643.8124216249698
 30
0.0
 11
728.9137297145098
 21
643.8124216249548
 31
0.0
  0
SOLID
  5
29472
330
28ABD
100
AcDbEntity
  8
AM_5
 62
     3
440
 16777216
100
AcDbTrace
 10
778.9265008607222
 20
635.770971877524
 30
0.0
 11
776.8449748945133
 21
633.1674433558617
 31
0.0
 12
785.6963234426046
 22
628.2246297180661
 32
0.0
 13
785.6963234426046
 23
628.2246297180661
 33
0.0
  0
MTEXT
  5
29473
330
28ABD
100
AcDbEntity
  8
AM_5
 62
     2
440
 16777216
100
AcDbMText
 10
744.5565868573625
 20
654.812421624961
 30
0.0
 40
10.0
 41
0.0
 46
0.0
 71
     5
 72
     1
  1
∅233
  7
ROMANS
 73
     1
 44
1.0
  0
POINT
  5
29474
330
28ABD
100
AcDbEntity
  8
Defpoints
 62
     0
440
 16777216
100
AcDbPoint
 10
785.6963234428587
 20
628.2246297177483
 30
0.0
  0
POINT
  5
29475
330
28ABD
100
AcDbEntity
  8
Defpoints
 62
     0
440
 16777216
100
AcDbPoint
 10
967.9526180381171
 20
482.5103782513763
 30
0.0
  0
ENDBLK
  5
28ABF
330
28ABD
100
AcDbEntity
  8
0
100
AcDbBlockEnd
  0
BLOCK
  5
28AE8
330
28AE7
100
AcDbEntity
  8
0
100
AcDbBlockBegin
  2
*D15
 70
     1
 10
0.0
 20
0.0
 30
0.0
  3
*D15
  1

  0
LINE
  5
2978E
330
28AE7
100
AcDbEntity
  8
AM_5
 62
     3
440
 16777216
100
AcDbLine
 10
511.1247327542533
 20
634.0319830440711
 30
0.0
 11
503.8498146803103
 21
640.893146722152
 31
0.0
  0
LINE
  5
2978F
330
28AE7
100
AcDbEntity
  8
AM_5
 62
     3
440
 16777216
100
AcDbLine
 10
503.8498146803103
 20
640.893146722152
 30
0.0
 11
466.9926718231674
 21
640.8931467221371
 31
0.0
  0
SOLID
  5
29790
330
28AE7
100
AcDbEntity
  8
AM_5
 62
     3
440
 16777216
100
AcDbTrace
 10
512.2682600339334
 20
635.2444693897282
 30
0.0
 11
509.9812054745732
 21
632.8194966984139
 31
0.0
 12
518.3996508281963
 22
627.1708193659902
 32
0.0
 13
518.3996508281963
 23
627.1708193659902
 33
0.0
  0
MTEXT
  5
29791
330
28AE7
100
AcDbEntity
  8
AM_5
 62
     2
440
 16777216
100
AcDbMText
 10
482.4212432517342
 20
651.8931467221432
 30
0.0
 40
10.0
 41
0.0
 46
0.0
 71
     5
 72
     1
  1
∅209
  7
ROMANS
 73
     1
 44
1.0
  0
POINT
  5
29792
330
28AE7
100
AcDbEntity
  8
Defpoints
 62
     0
440
 16777216
100
AcDbPoint
 10
518.39965082845
 20
627.1708193657807
 30
0.0
  0
POINT
  5
29793
330
28AE7
100
AcDbEntity
  8
Defpoints
 62
     0
440
 16777216
100
AcDbPoint
 10
670.6663103471784
 20
483.5641886031066
 30
0.0
  0
ENDBLK
  5
28AE9
330
28AE7
100
AcDbEntity
  8
0
100
AcDbBlockEnd
  0
BLOCK
  5
28B06
330
28B05
100
AcDbEntity
  8
0
100
AcDbBlockBegin
  2
*D16
 70
     1
 10
0.0
 20
0.0
 30
0.0
  3
*D16
  1

  0
LINE
  5
29782
330
28B05
100
AcDbEntity
  8
AM_5
 62
     3
440
 16777216
100
AcDbLine
 10
272.5568419053609
 20
625.2368147674157
 30
0.0
 11
265.5162174363426
 21
632.3381954138999
 31
0.0
  0
LINE
  5
29783
330
28B05
100
AcDbEntity
  8
AM_5
 62
     3
440
 16777216
100
AcDbLine
 10
265.5162174363426
 20
632.3381954138999
 30
0.0
 11
228.2305031506283
 21
632.3381954138848
 31
0.0
  0
SOLID
  5
29784
330
28B05
100
AcDbEntity
  8
AM_5
 62
     3
440
 16777216
100
AcDbTrace
 10
273.7404053464415
 20
626.4102521789187
 30
0.0
 11
271.3732784642801
 21
624.0633773559126
 31
0.0
 12
279.5974663743792
 22
618.1354341209314
 32
0.0
 13
279.5974663743792
 23
618.1354341209314
 33
0.0
  0
MTEXT
  5
29785
330
28B05
100
AcDbEntity
  8
AM_5
 62
     2
440
 16777216
100
AcDbMText
 10
243.8733602934809
 20
643.3381954138911
 30
0.0
 40
10.0
 41
0.0
 46
0.0
 71
     5
 72
     1
  1
∅177
  7
ROMANS
 73
     1
 44
1.0
  0
POINT
  5
29786
330
28B05
100
AcDbEntity
  8
Defpoints
 62
     0
440
 16777216
100
AcDbPoint
 10
279.5974663746291
 20
618.1354341208184
 30
0.0
  0
POINT
  5
29787
330
28B05
100
AcDbEntity
  8
Defpoints
 62
     0
440
 16777216
100
AcDbPoint
 10
404.0592990203535
 20
492.5995738478648
 30
0.0
  0
ENDBLK
  5
28B07
330
28B05
100
AcDbEntity
  8
0
100
AcDbBlockEnd
  0
BLOCK
  5
28B24
330
28B23
100
AcDbEntity
  8
0
100
AcDbBlockBegin
  2
*D17
 70
     1
 10
0.0
 20
0.0
 30
0.0
  3
*D17
  1

  0
LINE
  5
29788
330
28B23
100
AcDbEntity
  8
AM_5
 62
     3
440
 16777216
100
AcDbLine
 10
58.38203574573078
 20
621.9392769493982
 30
0.0
 11
52.71494777658569
 21
630.1784585804809
 31
0.0
  0
LINE
  5
29789
330
28B23
100
AcDbEntity
  8
AM_5
 62
     3
440
 16777216
100
AcDbLine
 10
52.71494777658569
 20
630.1784585804809
 30
0.0
 11
15.42923349087141
 21
630.1784585804659
 31
0.0
  0
SOLID
  5
2978A
330
28B23
100
AcDbEntity
  8
AM_5
 62
     3
440
 16777216
100
AcDbTrace
 10
59.75523268424456
 20
622.8837916109223
 30
0.0
 11
57.00883880721699
 21
620.994762287874
 31
0.0
 12
64.04912371487592
 22
613.7000953183154
 32
0.0
 13
64.04912371487592
 23
613.7000953183154
 33
0.0
  0
MTEXT
  5
2978B
330
28B23
100
AcDbEntity
  8
AM_5
 62
     2
440
 16777216
100
AcDbMText
 10
31.07209063372414
 20
641.1784585804722
 30
0.0
 40
10.0
 41
0.0
 46
0.0
 71
     5
 72
     1
  1
∅142
  7
ROMANS
 73
     1
 44
1.0
  0
POINT
  5
2978C
330
28B23
100
AcDbEntity
  8
Defpoints
 62
     0
440
 16777216
100
AcDbPoint
 10
64.04912371512415
 20
613.7000953182896
 30
0.0
  0
POINT
  5
2978D
330
28B23
100
AcDbEntity
  8
Defpoints
 62
     0
440
 16777216
100
AcDbPoint
 10
144.2939687397351
 20
497.0349126502034
 30
0.0
  0
ENDBLK
  5
28B25
330
28B23
100
AcDbEntity
  8
0
100
AcDbBlockEnd
  0
BLOCK
  5
28B42
330
28B41
100
AcDbEntity
  8
0
100
AcDbBlockBegin
  2
*D18
 70
     1
 10
0.0
 20
0.0
 30
0.0
  3
*D18
  1

  0
LINE
  5
297D5
330
28B41
100
AcDbEntity
  8
AM_5
 62
     3
440
 16777216
100
AcDbLine
 10
72.4646365076372
 20
298.2217192566152
 30
0.0
 11
63.62020222450508
 21
309.0512139475213
 31
0.0
  0
LINE
  5
297D6
330
28B41
100
AcDbEntity
  8
AM_5
 62
     3
440
 16777216
100
AcDbLine
 10
63.62020222450508
 20
309.0512139475213
 30
0.0
 11
26.3344879387908
 21
309.0512139475062
 31
0.0
  0
SOLID
  5
297D7
330
28B41
100
AcDbEntity
  8
AM_5
 62
     3
440
 16777216
100
AcDbTrace
 10
73.75550312544483
 20
299.2759683509036
 30
0.0
 11
71.1737698898297
 21
297.1674701623269
 31
0.0
 12
78.79013107336733
 22
290.4765195497698
 32
0.0
 13
78.79013107336733
 23
290.4765195497698
 33
0.0
  0
MTEXT
  5
297D8
330
28B41
100
AcDbEntity
  8
AM_5
 62
     2
440
 16777216
100
AcDbMText
 10
41.97734508164352
 20
320.0512139475126
 30
0.0
 40
10.0
 41
0.0
 46
0.0
 71
     5
 72
     1
  1
∅255
  7
ROMANS
 73
     1
 44
1.0
  0
POINT
  5
297D9
330
28B41
100
AcDbEntity
  8
Defpoints
 62
     0
440
 16777216
100
AcDbPoint
 10
78.79013107348476
 20
290.476519549738
 30
0.0
  0
POINT
  5
297DA
330
28B41
100
AcDbEntity
  8
Defpoints
 62
     0
440
 16777216
100
AcDbPoint
 10
239.8109347377158
 20
93.31592311291013
 30
0.0
  0
ENDBLK
  5
28B43
330
28B41
100
AcDbEntity
  8
0
100
AcDbBlockEnd
  0
BLOCK
  5
28BD1
330
28BD0
100
AcDbEntity
  8
0
100
AcDbBlockBegin
  2
*D19
 70
     1
 10
0.0
 20
0.0
 30
0.0
  3
*D19
  1

  0
LINE
  5
2948E
330
28BD0
100
AcDbEntity
  8
AM_5
 62
     3
440
 16777216
100
AcDbLine
 10
100.4362618535552
 20
480.661816510122
 30
0.0
 11
98.79124005625619
 21
447.7613805636319
 31
0.0
  0
LINE
  5
2948F
330
28BD0
100
AcDbEntity
  8
AM_5
 62
     3
440
 16777216
100
AcDbLine
 10
104.1715462272759
 20
468.7312350553674
 30
0.0
 11
104.1715462272929
 21
447.626956871724
 31
0.0
  0
ARC
  5
29490
330
28BD0
100
AcDbEntity
  8
AM_5
 62
     3
440
 16777216
100
AcDbCircle
 10
104.1715462272057
 20
555.3675039842908
 30
0.0
 40
103.7405471125668
100
AcDbArc
 50
256.0744405932558
 51
267.1375947739326
  0
LINE
  5
29491
330
28BD0
100
AcDbEntity
  8
AM_5
 62
     3
440
 16777216
100
AcDbLine
 10
79.20523711658383
 20
454.6759724406324
 30
0.0
 11
58.40646811072646
 21
459.8329949643737
 31
0.0
  0
ARC
  5
29492
330
28BD0
100
AcDbEntity
  8
AM_5
 62
     3
440
 16777216
100
AcDbCircle
 10
104.1715462272057
 20
555.3675039842908
 30
0.0
 40
103.7405471125668
100
AcDbArc
 50
256.0873377578221
 51
261.6124662658773
  0
ARC
  5
29493
330
28BD0
100
AcDbEntity
  8
AM_5
 62
     3
440
 16777216
100
AcDbCircle
 10
104.1715462272057
 20
555.3675039842908
 30
0.0
 40
103.7405471125668
100
AcDbArc
 50
275.5251285081017
 51
281.050257016157
  0
ARC
  5
29494
330
28BD0
100
AcDbEntity
  8
AM_5
 62
     3
440
 16777216
100
AcDbCircle
 10
104.1715462272057
 20
555.3675039842908
 30
0.0
 40
103.7405471125668
100
AcDbArc
 50
267.1375947739326
 51
270.0000000000464
  0
SOLID
  5
29495
330
28BD0
100
AcDbEntity
  8
AM_5
 62
     3
440
 16777216
100
AcDbTrace
 10
89.20250375223358
 20
454.3951973194989
 30
0.0
 11
88.8757817181613
 21
451.0779147232218
 31
0.0
 12
98.99099052402866
 22
451.7563899191435
 32
0.0
 13
98.99099052402866
 23
451.7563899191435
 33
0.0
  0
SOLID
  5
29496
330
28BD0
100
AcDbEntity
  8
AM_5
 62
     3
440
 16777216
100
AcDbTrace
 10
114.2402532459495
 20
450.4441987602877
 30
0.0
 11
114.0795960378391
 21
453.7736582318226
 31
0.0
 12
104.1715462272897
 22
451.626956871724
 32
0.0
 13
104.1715462272897
 23
451.626956871724
 33
0.0
  0
MTEXT
  5
29497
330
28BD0
100
AcDbEntity
  8
AM_5
 62
     2
440
 16777216
100
AcDbMText
 10
71.45312417584235
 20
467.9311851255098
 30
0.0
 40
10.0
 41
0.0
 46
0.0
 71
     5
 72
     1
  1
3°
  7
ROMANS
 11
0.9706092202733433
 21
-0.2406610511079277
 31
0.0
 73
     1
 44
1.0
  0
POINT
  5
29498
330
28BD0
100
AcDbEntity
  8
Defpoints
 62
     0
440
 16777216
100
AcDbPoint
 10
102.4440556384113
 20
451.6413409805035
 30
0.0
  0
POINT
  5
29499
330
28BD0
100
AcDbEntity
  8
Defpoints
 62
     0
440
 16777216
100
AcDbPoint
 10
104.1715462274638
 20
472.7312350553253
 30
0.0
  0
POINT
  5
2949A
330
28BD0
100
AcDbEntity
  8
Defpoints
 62
     0
440
 16777216
100
AcDbPoint
 10
100.6360123215236
 20
484.6568258655929
 30
0.0
  0
POINT
  5
2949B
330
28BD0
100
AcDbEntity
  8
Defpoints
 62
     0
440
 16777216
100
AcDbPoint
 10
104.1715462274301
 20
555.3675039842467
 30
0.0
  0
POINT
  5
2949C
330
28BD0
100
AcDbEntity
  8
Defpoints
 62
     0
440
 16777216
100
AcDbPoint
 10
104.1715462273965
 20
638.5231031646694
 30
0.0
  0
ENDBLK
  5
28BD2
330
28BD0
100
AcDbEntity
  8
0
100
AcDbBlockEnd
  0
BLOCK
  5
28C1D
330
28C1C
100
AcDbEntity
  8
0
100
AcDbBlockBegin
  2
*D20
 70
     1
 10
0.0
 20
0.0
 30
0.0
  3
*D20
  1

  0
LINE
  5
2949D
330
28C1C
100
AcDbEntity
  8
AM_5
 62
     3
440
 16777216
100
AcDbLine
 10
104.1715462272761
 20
468.7312350553674
 30
0.0
 11
104.1715462272931
 21
447.6269568717231
 31
0.0
  0
LINE
  5
2949E
330
28C1C
100
AcDbEntity
  8
AM_5
 62
     3
440
 16777216
100
AcDbLine
 10
178.8772337013626
 20
559.1027883580578
 30
0.0
 11
211.7776696478551
 21
560.7478101554093
 31
0.0
  0
ARC
  5
2949F
330
28C1C
100
AcDbEntity
  8
AM_5
 62
     3
440
 16777216
100
AcDbCircle
 10
104.1715462272058
 20
555.3675039842888
 30
0.0
 40
103.7405471125657
100
AcDbArc
 50
275.5251285081017
 51
357.3372767181031
  0
SOLID
  5
294A0
330
28C1C
100
AcDbEntity
  8
AM_5
 62
     3
440
 16777216
100
AcDbTrace
 10
114.2402532459497
 20
450.4441987602867
 30
0.0
 11
114.0795960378393
 21
453.7736582318216
 31
0.0
 12
104.1715462272899
 22
451.6269568717231
 32
0.0
 13
104.1715462272899
 23
451.6269568717231
 33
0.0
  0
SOLID
  5
294A1
330
28C1C
100
AcDbEntity
  8
AM_5
 62
     3
440
 16777216
100
AcDbTrace
 10
206.1334216841896
 20
550.5451706154098
 30
0.0
 11
209.466749956702
 21
550.5509791247771
 31
0.0
 12
207.7826602923438
 22
560.5480596876304
 32
0.0
 13
207.7826602923438
 23
560.5480596876304
 33
0.0
  0
MTEXT
  5
294A2
330
28C1C
100
AcDbEntity
  8
AM_5
 62
     2
440
 16777216
100
AcDbMText
 10
171.3664604243885
 20
491.4483942848316
 30
0.0
 40
10.0
 41
0.0
 46
0.0
 71
     5
 72
     1
  1
93°
  7
ROMANS
 11
0.6892250659452563
 21
0.7245473127910675
 31
0.0
 73
     1
 44
1.0
  0
POINT
  5
294A3
330
28C1C
100
AcDbEntity
  8
Defpoints
 62
     0
440
 16777216
100
AcDbPoint
 10
157.5306784642626
 20
466.4017570804709
 30
0.0
  0
POINT
  5
294A4
330
28C1C
100
AcDbEntity
  8
Defpoints
 62
     0
440
 16777216
100
AcDbPoint
 10
104.1715462274301
 20
555.3675039842468
 30
0.0
  0
POINT
  5
294A5
330
28C1C
100
AcDbEntity
  8
Defpoints
 62
     0
440
 16777216
100
AcDbPoint
 10
104.1715462273964
 20
638.5231031646692
 30
0.0
  0
POINT
  5
294A6
330
28C1C
100
AcDbEntity
  8
Defpoints
 62
     0
440
 16777216
100
AcDbPoint
 10
104.1715462274638
 20
472.7312350553254
 30
0.0
  0
POINT
  5
294A7
330
28C1C
100
AcDbEntity
  8
Defpoints
 62
     0
440
 16777216
100
AcDbPoint
 10
174.8822243460772
 20
558.9030378902083
 30
0.0
  0
ENDBLK
  5
28C1E
330
28C1C
100
AcDbEntity
  8
0
100
AcDbBlockEnd
  0
BLOCK
  5
28CB5
330
28CB4
100
AcDbEntity
  8
0
100
AcDbBlockBegin
  2
*D21
 70
     1
 10
0.0
 20
0.0
 30
0.0
  3
*D21
  1

  0
LINE
  5
294A8
330
28CB4
100
AcDbEntity
  8
AM_5
 62
     3
440
 16777216
100
AcDbLine
 10
178.8772337013625
 20
559.102788358058
 30
0.0
 11
211.7776696478557
 21
560.7478101554095
 31
0.0
  0
LINE
  5
294A9
330
28CB4
100
AcDbEntity
  8
AM_5
 62
     3
440
 16777216
100
AcDbLine
 10
107.8938688943967
 20
629.8120583773109
 30
0.0
 11
109.5519892982061
 21
662.9736205598576
 31
0.0
  0
ARC
  5
294AA
330
28CB4
100
AcDbEntity
  8
AM_5
 62
     3
440
 16777216
100
AcDbCircle
 10
104.1715462272055
 20
555.3675039842889
 30
0.0
 40
103.7405471125666
100
AcDbArc
 50
8.387533734213825
 51
81.61239337229897
  0
SOLID
  5
294AB
330
28CB4
100
AcDbEntity
  8
AM_5
 62
     3
440
 16777216
100
AcDbTrace
 10
208.4611354882501
 20
570.6632684934991
 30
0.0
 11
205.1438528919735
 21
570.3365464594216
 31
0.0
 12
207.7826602923445
 22
560.5480596876307
 32
0.0
 13
207.7826602923445
 23
560.5480596876307
 33
0.0
  0
SOLID
  5
294AC
330
28CB4
100
AcDbEntity
  8
AM_5
 62
     3
440
 16777216
100
AcDbTrace
 10
119.1407171624606
 20
656.3397916048899
 30
0.0
 11
119.4674434168889
 21
659.6570737854977
 31
0.0
 12
109.3522337478512
 22
658.9786114584786
 32
0.0
 13
109.3522337478512
 23
658.9786114584786
 33
0.0
  0
MTEXT
  5
294AD
330
28CB4
100
AcDbEntity
  8
AM_5
 62
     2
440
 16777216
100
AcDbMText
 10
185.3054167780337
 20
636.5012713141285
 30
0.0
 40
10.0
 41
0.0
 46
0.0
 71
     5
 72
     1
  1
84°
  7
ROMANS
 11
0.7071063313846949
 21
-0.7071072309881141
 31
0.0
 73
     1
 44
1.0
  0
POINT
  5
294AE
330
28CB4
100
AcDbEntity
  8
Defpoints
 62
     0
440
 16777216
100
AcDbPoint
 10
193.1373157596146
 20
608.7265984926892
 30
0.0
  0
POINT
  5
294AF
330
28CB4
100
AcDbEntity
  8
Defpoints
 62
     0
440
 16777216
100
AcDbPoint
 10
104.1715462274301
 20
555.3675039842467
 30
0.0
  0
POINT
  5
294B0
330
28CB4
100
AcDbEntity
  8
Defpoints
 62
     0
440
 16777216
100
AcDbPoint
 10
104.1715462274301
 20
555.3675039842467
 30
0.0
  0
POINT
  5
294B1
330
28CB4
100
AcDbEntity
  8
Defpoints
 62
     0
440
 16777216
100
AcDbPoint
 10
174.8822243460773
 20
558.9030378902083
 30
0.0
  0
POINT
  5
294B2
330
28CB4
100
AcDbEntity
  8
Defpoints
 62
     0
440
 16777216
100
AcDbPoint
 10
107.6941133442949
 20
625.8170492758882
 30
0.0
  0
ENDBLK
  5
28CB6
330
28CB4
100
AcDbEntity
  8
0
100
AcDbBlockEnd
  0
BLOCK
  5
28CE5
330
28CE4
100
AcDbEntity
  8
0
100
AcDbBlockBegin
  2
*D22
 70
     1
 10
0.0
 20
0.0
 30
0.0
  3
*D22
  1

  0
LINE
  5
294B3
330
28CE4
100
AcDbEntity
  8
AM_5
 62
     3
440
 16777216
100
AcDbLine
 10
107.893868894397
 20
629.8120583773109
 30
0.0
 11
109.5519892982063
 21
662.9736205598576
 31
0.0
  0
LINE
  5
294B4
330
28CE4
100
AcDbEntity
  8
AM_5
 62
     3
440
 16777216
100
AcDbLine
 10
104.1715462271353
 20
642.5231031647114
 30
0.0
 11
104.1715462271187
 21
663.1080510968554
 31
0.0
  0
ARC
  5
294B5
330
28CE4
100
AcDbEntity
  8
AM_5
 62
     3
440
 16777216
100
AcDbCircle
 10
104.1715462272058
 20
555.3675039842889
 30
0.0
 40
103.7405471125666
100
AcDbArc
 50
76.08726486424369
 51
81.61239337229897
  0
ARC
  5
294B6
330
28CE4
100
AcDbEntity
  8
AM_5
 62
     3
440
 16777216
100
AcDbCircle
 10
104.1715462272058
 20
555.3675039842889
 30
0.0
 40
103.7405471125666
100
AcDbArc
 50
95.52512850810164
 51
101.0502570161569
  0
ARC
  5
294B7
330
28CE4
100
AcDbEntity
  8
AM_5
 62
     3
440
 16777216
100
AcDbCircle
 10
104.1715462272058
 20
555.3675039842889
 30
0.0
 40
103.7405471125666
100
AcDbArc
 50
87.13752188035426
 51
90.00000000004636
  0
SOLID
  5
294B8
330
28CE4
100
AcDbEntity
  8
AM_5
 62
     3
440
 16777216
100
AcDbTrace
 10
119.1407171624609
 20
656.3397916048899
 30
0.0
 11
119.4674434168892
 21
659.6570737854977
 31
0.0
 12
109.3522337478515
 22
658.9786114584784
 32
0.0
 13
109.3522337478515
 23
658.9786114584784
 33
0.0
  0
SOLID
  5
294B9
330
28CE4
100
AcDbEntity
  8
AM_5
 62
     3
440
 16777216
100
AcDbTrace
 10
94.1028392084621
 20
660.2908092082918
 30
0.0
 11
94.26349641657247
 21
656.9613497367569
 31
0.0
 12
104.1715462271219
 22
659.1080510968554
 32
0.0
 13
104.1715462271219
 23
659.1080510968554
 33
0.0
  0
MTEXT
  5
294BA
330
28CE4
100
AcDbEntity
  8
AM_5
 62
     2
440
 16777216
100
AcDbMText
 10
107.5985303733237
 20
670.0568623893013
 30
0.0
 40
10.0
 41
0.0
 46
0.0
 71
     5
 72
     1
  1
3°
  7
ROMANS
 11
0.9995538742942889
 21
-0.02986724599418314
 31
0.0
 73
     1
 44
1.0
  0
POINT
  5
294BB
330
28CE4
100
AcDbEntity
  8
Defpoints
 62
     0
440
 16777216
100
AcDbPoint
 10
105.8990808043963
 20
659.0936662553923
 30
0.0
  0
POINT
  5
294BC
330
28CE4
100
AcDbEntity
  8
Defpoints
 62
     0
440
 16777216
100
AcDbPoint
 10
104.1715462274301
 20
555.3675039842467
 30
0.0
  0
POINT
  5
294BD
330
28CE4
100
AcDbEntity
  8
Defpoints
 62
     0
440
 16777216
100
AcDbPoint
 10
104.1715462274301
 20
555.3675039842467
 30
0.0
  0
POINT
  5
294BE
330
28CE4
100
AcDbEntity
  8
Defpoints
 62
     0
440
 16777216
100
AcDbPoint
 10
107.6941133442949
 20
625.8170492758883
 30
0.0
  0
POINT
  5
294BF
330
28CE4
100
AcDbEntity
  8
Defpoints
 62
     0
440
 16777216
100
AcDbPoint
 10
104.1715462273964
 20
638.5231031646692
 30
0.0
  0
ENDBLK
  5
28CE6
330
28CE4
100
AcDbEntity
  8
0
100
AcDbBlockEnd
  0
BLOCK
  5
29606
330
29605
100
AcDbEntity
  8
0
100
AcDbBlockBegin
  2
*D38
 70
     1
 10
0.0
 20
0.0
 30
0.0
  3
*D38
  1

  0
LINE
  5
297F1
330
29605
100
AcDbEntity
  8
AM_5
 62
     3
440
 16777216
100
AcDbLine
 10
13.96338893772571
 20
191.8962213312715
 30
0.0
 11
4.61625737281274
 21
191.896221331264
 31
0.0
  0
LINE
  5
297F2
330
29605
100
AcDbEntity
  8
AM_5
 62
     3
440
 16777216
100
AcDbLine
 10
159.3005329056261
 20
52.54092570012017
 30
0.0
 11
159.3005329056384
 21
37.21194579868806
 31
0.0
  0
ARC
  5
297F3
330
29605
100
AcDbEntity
  8
AM_5
 62
     3
440
 16777216
100
AcDbCircle
 10
159.3005329055136
 20
191.896221331389
 30
0.0
 40
150.684275532701
100
AcDbArc
 50
183.8030709380141
 51
266.1969290620784
  0
SOLID
  5
297F4
330
29605
100
AcDbEntity
  8
AM_5
 62
     3
440
 16777216
100
AcDbTrace
 10
7.282328120714453
 20
181.8464247896364
 30
0.0
 11
10.61382587757299
 21
181.9570313317468
 31
0.0
 12
8.616257372812726
 22
191.8962213312672
 32
0.0
 13
8.616257372812726
 23
191.8962213312672
 33
0.0
  0
SOLID
  5
297F5
330
29605
100
AcDbEntity
  8
AM_5
 62
     3
440
 16777216
100
AcDbTrace
 10
149.3613429061115
 20
43.20951430343227
 30
0.0
 11
149.2507363640065
 21
39.87801654657355
 31
0.0
 12
159.3005329056352
 22
41.21194579868806
 32
0.0
 13
159.3005329056352
 23
41.21194579868806
 33
0.0
  0
MTEXT
  5
297F6
330
29605
100
AcDbEntity
  8
AM_5
 62
     2
440
 16777216
100
AcDbMText
 10
38.33040178502596
 20
122.0540835649409
 30
0.0
 40
10.0
 41
0.0
 46
0.0
 71
     5
 72
     1
  1
90°
  7
ROMANS
 11
0.5000000000006997
 21
-0.8660254037840347
 31
0.0
 73
     1
 44
1.0
  0
POINT
  5
297F7
330
29605
100
AcDbEntity
  8
Defpoints
 62
     0
440
 16777216
100
AcDbPoint
 10
83.95839513929336
 20
61.39981076912133
 30
0.0
  0
POINT
  5
297F8
330
29605
100
AcDbEntity
  8
Defpoints
 62
     0
440
 16777216
100
AcDbPoint
 10
159.3005329055348
 20
332.3380282823497
 30
0.0
  0
POINT
  5
297F9
330
29605
100
AcDbEntity
  8
Defpoints
 62
     0
440
 16777216
100
AcDbPoint
 10
17.9633889378033
 20
191.8962213312675
 30
0.0
  0
POINT
  5
297FA
330
29605
100
AcDbEntity
  8
Defpoints
 62
     0
440
 16777216
100
AcDbPoint
 10
299.7098774709655
 20
191.8962213313814
 30
0.0
  0
POINT
  5
297FB
330
29605
100
AcDbEntity
  8
Defpoints
 62
     0
440
 16777216
100
AcDbPoint
 10
159.3005329056457
 20
56.54092570005575
 30
0.0
  0
ENDBLK
  5
29607
330
29605
100
AcDbEntity
  8
0
100
AcDbBlockEnd
  0
BLOCK
  5
29664
330
29663
100
AcDbEntity
  8
0
100
AcDbBlockBegin
  2
*D39
 70
     1
 10
0.0
 20
0.0
 30
0.0
  3
*D39
  1

  0
LINE
  5
2974C
330
29663
100
AcDbEntity
  8
AM_5
 62
     3
440
 16777216
100
AcDbLine
 10
239.4382978354971
 20
555.3675039843984
 30
0.0
 11
228.4938136822964
 21
555.3675039843895
 31
0.0
  0
LINE
  5
2974D
330
29663
100
AcDbEntity
  8
AM_5
 62
     3
440
 16777216
100
AcDbLine
 10
341.8283826973428
 20
456.3419334674306
 30
0.0
 11
341.8283826973542
 21
442.0329349695144
 31
0.0
  0
ARC
  5
2974E
330
29663
100
AcDbEntity
  8
AM_5
 62
     3
440
 16777216
100
AcDbCircle
 10
341.8283826972631
 20
555.3675039844811
 30
0.0
 40
109.3345690149667
100
AcDbArc
 50
185.2422367135082
 51
264.7577632865841
  0
SOLID
  5
2974F
330
29663
100
AcDbEntity
  8
AM_5
 62
     3
440
 16777216
100
AcDbTrace
 10
231.2862026172464
 20
545.3017475153862
 30
0.0
 11
234.6160485566567
 21
545.4541848169379
 31
0.0
 12
232.4938136822964
 22
555.3675039843927
 32
0.0
 13
232.4938136822964
 23
555.3675039843927
 33
0.0
  0
SOLID
  5
29750
330
29663
100
AcDbEntity
  8
AM_5
 62
     3
440
 16777216
100
AcDbTrace
 10
331.9150635298928
 20
448.1551698438586
 30
0.0
 11
331.7626262283464
 21
444.8253239044482
 31
0.0
 12
341.828382697351
 22
446.0329349695144
 32
0.0
 13
341.828382697351
 23
446.0329349695144
 33
0.0
  0
MTEXT
  5
29751
330
29663
100
AcDbEntity
  8
AM_5
 62
     2
440
 16777216
100
AcDbMText
 10
257.1255562514814
 20
505.416341280746
 30
0.0
 40
10.0
 41
0.0
 46
0.0
 71
     5
 72
     1
  1
90°
  7
ROMANS
 11
0.5079715425013195
 21
-0.8613738514772957
 31
0.0
 73
     1
 44
1.0
  0
POINT
  5
29752
330
29663
100
AcDbEntity
  8
Defpoints
 62
     0
440
 16777216
100
AcDbPoint
 10
287.1610981900423
 20
460.6809897055369
 30
0.0
  0
POINT
  5
29753
330
29663
100
AcDbEntity
  8
Defpoints
 62
     0
440
 16777216
100
AcDbPoint
 10
341.8283826975257
 20
460.3419334672923
 30
0.0
  0
POINT
  5
29754
330
29663
100
AcDbEntity
  8
Defpoints
 62
     0
440
 16777216
100
AcDbPoint
 10
243.4382978357216
 20
555.3675039843031
 30
0.0
  0
POINT
  5
29755
330
29663
100
AcDbEntity
  8
Defpoints
 62
     0
440
 16777216
100
AcDbPoint
 10
439.5255832119547
 20
555.3675039843824
 30
0.0
  0
POINT
  5
29756
330
29663
100
AcDbEntity
  8
Defpoints
 62
     0
440
 16777216
100
AcDbPoint
 10
341.8283826974493
 20
651.0816319304961
 30
0.0
  0
ENDBLK
  5
29665
330
29663
100
AcDbEntity
  8
0
100
AcDbBlockEnd
  0
BLOCK
  5
296A5
330
296A4
100
AcDbEntity
  8
0
100
AcDbBlockBegin
  2
*D40
 70
     1
 10
0.0
 20
0.0
 30
0.0
  3
*D40
  1

  0
LINE
  5
29736
330
296A4
100
AcDbEntity
  8
AM_5
 62
     3
440
 16777216
100
AcDbLine
 10
479.5064612032866
 20
555.3675039845924
 30
0.0
 11
464.4696072024766
 21
555.3675039845803
 31
0.0
  0
LINE
  5
29737
330
296A4
100
AcDbEntity
  8
AM_5
 62
     3
440
 16777216
100
AcDbLine
 10
594.5329805876881
 20
435.8474164916791
 30
0.0
 11
594.5329805876968
 21
425.3041305995709
 31
0.0
  0
ARC
  5
29738
330
296A4
100
AcDbEntity
  8
AM_5
 62
     3
440
 16777216
100
AcDbCircle
 10
594.532980587591
 20
555.3675039846854
 30
0.0
 40
126.0633733851145
100
AcDbArc
 50
184.5461906039045
 51
265.4538093961884
  0
SOLID
  5
29739
330
296A4
100
AcDbEntity
  8
AM_5
 62
     3
440
 16777216
100
AcDbTrace
 10
467.2008778945698
 20
545.3092683678843
 30
0.0
 11
470.5315883274402
 21
545.4414770040605
 31
0.0
 12
468.4696072024766
 22
555.3675039845834
 32
0.0
 13
468.4696072024766
 23
555.3675039845834
 33
0.0
  0
SOLID
  5
2973A
330
296A4
100
AcDbEntity
  8
AM_5
 62
     3
440
 16777216
100
AcDbTrace
 10
584.606953607167
 20
431.3661117245183
 30
0.0
 11
584.4747449709964
 21
428.0354012916478
 31
0.0
 12
594.5329805876935
 22
429.3041305995709
 32
0.0
 13
594.5329805876935
 23
429.3041305995709
 33
0.0
  0
MTEXT
  5
2973B
330
296A4
100
AcDbEntity
  8
AM_5
 62
     2
440
 16777216
100
AcDbMText
 10
494.8851761909943
 20
497.8358172920475
 30
0.0
 40
10.0
 41
0.0
 46
0.0
 71
     5
 72
     1
  1
90°
  7
ROMANS
 11
0.5000000000007004
 21
-0.8660254037840343
 31
0.0
 73
     1
 44
1.0
  0
POINT
  5
2973C
330
296A4
100
AcDbEntity
  8
Defpoints
 62
     0
440
 16777216
100
AcDbPoint
 10
531.5012938953029
 20
446.1934201461471
 30
0.0
  0
POINT
  5
2973D
330
296A4
100
AcDbEntity
  8
Defpoints
 62
     0
440
 16777216
100
AcDbPoint
 10
483.5064612035112
 20
555.3675039844002
 30
0.0
  0
POINT
  5
2973E
330
296A4
100
AcDbEntity
  8
Defpoints
 62
     0
440
 16777216
100
AcDbPoint
 10
594.5329805878628
 20
439.8474164914387
 30
0.0
  0
POINT
  5
2973F
330
296A4
100
AcDbEntity
  8
Defpoints
 62
     0
440
 16777216
100
AcDbPoint
 10
594.5329805877693
 20
668.9775614399882
 30
0.0
  0
POINT
  5
29740
330
296A4
100
AcDbEntity
  8
Defpoints
 62
     0
440
 16777216
100
AcDbPoint
 10
710.997250368571
 20
555.367503984492
 30
0.0
  0
ENDBLK
  5
296A6
330
296A4
100
AcDbEntity
  8
0
100
AcDbBlockEnd
  0
BLOCK
  5
296E6
330
296E5
100
AcDbEntity
  8
0
100
AcDbBlockBegin
  2
*D41
 70
     1
 10
0.0
 20
0.0
 30
0.0
  3
*D41
  1

  0
LINE
  5
2972C
330
296E5
100
AcDbEntity
  8
AM_5
 62
     3
440
 16777216
100
AcDbLine
 10
876.8244707403569
 20
425.601245943507
 30
0.0
 11
876.8244707403678
 21
411.9224268491434
 31
0.0
  0
ARC
  5
2972D
330
296E5
100
AcDbEntity
  8
AM_5
 62
     3
440
 16777216
100
AcDbCircle
 10
876.8244707402521
 20
555.3675039849137
 30
0.0
 40
139.4450771357704
100
AcDbArc
 50
184.1097229934673
 51
265.8902770066253
  0
SOLID
  5
2972E
330
296E5
100
AcDbEntity
  8
AM_5
 62
     3
440
 16777216
100
AcDbTrace
 10
736.0723627944222
 20
545.3141737783801
 30
0.0
 11
739.4035526348863
 21
545.4336951484377
 31
0.0
 12
737.3793936044817
 22
555.3675039848009
 32
0.0
 13
737.3793936044817
 23
555.3675039848009
 33
0.0
  0
SOLID
  5
2972F
330
296E5
100
AcDbEntity
  8
AM_5
 62
     3
440
 16777216
100
AcDbTrace
 10
866.890661903998
 20
417.9465858795318
 30
0.0
 11
866.7711405339458
 21
414.6153960390676
 31
0.0
 12
876.8244707403645
 22
415.9224268491433
 32
0.0
 13
876.8244707403645
 23
415.9224268491433
 33
0.0
  0
MTEXT
  5
29730
330
296E5
100
AcDbEntity
  8
AM_5
 62
     2
440
 16777216
100
AcDbMText
 10
765.5877709496751
 20
491.1449654169386
 30
0.0
 40
10.0
 41
0.0
 46
0.0
 71
     5
 72
     1
  1
90°
  7
ROMANS
 11
0.5000000000007004
 21
-0.8660254037840343
 31
0.0
 73
     1
 44
1.0
  0
POINT
  5
29731
330
296E5
100
AcDbEntity
  8
Defpoints
 62
     0
440
 16777216
100
AcDbPoint
 10
807.1019321726402
 20
434.6045247522734
 30
0.0
  0
POINT
  5
29732
330
296E5
100
AcDbEntity
  8
Defpoints
 62
     0
440
 16777216
100
AcDbPoint
 10
735.4873267726884
 20
555.367503984502
 30
0.0
  0
POINT
  5
29733
330
296E5
100
AcDbEntity
  8
Defpoints
 62
     0
440
 16777216
100
AcDbPoint
 10
876.8244707404201
 20
695.8093109355844
 30
0.0
  0
POINT
  5
29734
330
296E5
100
AcDbEntity
  8
Defpoints
 62
     0
440
 16777216
100
AcDbPoint
 10
876.8244707405273
 20
429.6012459431524
 30
0.0
  0
POINT
  5
29735
330
296E5
100
AcDbEntity
  8
Defpoints
 62
     0
440
 16777216
100
AcDbPoint
 10
1017.233815305851
 20
555.3675039846161
 30
0.0
  0
ENDBLK
  5
296E7
330
296E5
100
AcDbEntity
  8
0
100
AcDbBlockEnd
  0
ENDSEC
  0
SECTION
  2
ENTITIES
  0
TEXT
  5
3089
330
1F
100
AcDbEntity
  8
0
 62
     4
100
AcDbText
 10
5103.445087189407
 20
-925.2019868879812
 30
0.0
 40
1.44
  1

  7
ROMANS
 72
     1
 11
5103.445087189407
 21
-925.2019868879812
 31
0.0
100
AcDbText
  0
TEXT
  5
308A
330
1F
100
AcDbEntity
  8
0
 62
     2
100
AcDbText
 10
5101.414017491647
 20
-915.9830111364979
 30
0.0
 40
2.3
  1

 41
0.9
  7
ROMANS
 72
     1
 11
5101.414017491647
 21
-915.9830111364979
 31
0.0
100
AcDbText
  0
MTEXT
  5
52F1
330
1F
100
AcDbEntity
  8
4
100
AcDbMText
 10
247.6325991821456
 20
913.6951779908809
 30
0.0
 40
9.0
 41
0.0
 46
0.0
 71
     7
 72
     5
  1

 11
-1.836909530733566E-16
 21
-1.0
 31
0.0
 73
     1
 44
1.0
  0
TEXT
  5
52F2
330
1F
100
AcDbEntity
  8
0
 62
     4
100
AcDbText
 10
20.12946396169053
 20
1055.063259893984
 30
0.0
 40
5.760000000000001
  1

 50
270.0
  7
ROMANS
 72
     1
 11
20.12946396169053
 21
1055.063259893984
 31
0.0
100
AcDbText
  0
TEXT
  5
52F3
330
1F
100
AcDbEntity
  8
0
 62
     4
100
AcDbText
 10
2.672347990857702
 20
905.8110054009627
 30
0.0
 40
6.912000000000002
  1

 50
270.0
  7
ROMANS
 72
     1
 11
2.672347990857702
 21
905.8110054009627
 31
0.0
100
AcDbText
  0
TEXT
  5
52F4
330
1F
100
AcDbEntity
  8
0
 62
     2
100
AcDbText
 10
57.00536696762396
 20
1063.187538685022
 30
0.0
 40
9.2
  1

 50
270.0
 41
0.9
  7
ROMANS
 72
     1
 11
57.00536696762396
 21
1063.187538685022
 31
0.0
100
AcDbText
  0
TEXT
  5
52F5
330
1F
100
AcDbEntity
  8
0
 62
     4
100
AcDbText
 10
2.920904577730596
 20
1177.379953900031
 30
0.0
 40
5.6
  1

 50
270.0
 41
0.9
  7
ROMANS
 72
     1
 11
2.920904577730596
 21
1177.379953900031
 31
0.0
100
AcDbText
  0
MTEXT
  5
52F6
330
1F
100
AcDbEntity
  8
4
100
AcDbMText
 10
1.074012144498738
 20
1378.084849559649
 30
0.0
 40
9.0
 41
0.0
 46
0.0
 71
     7
 72
     5
  1

 11
-1.836909530733566E-16
 21
-1.0
 31
0.0
 73
     1
 44
1.0
  0
MTEXT
  5
535D
330
1F
100
AcDbEntity
  8
4
100
AcDbMText
 10
830.5427659874008
 20
1003.71716730084
 30
0.0
 40
9.0
 41
0.0
 46
0.0
 71
     7
 72
     5
  1

 11
-1.836909530733566E-16
 21
-1.0
 31
0.0
 73
     1
 44
1.0
  0
TEXT
  5
535E
330
1F
100
AcDbEntity
  8
0
 62
     4
100
AcDbText
 10
633.9556516422977
 20
1075.886024989313
 30
0.0
 40
5.760000000000001
  1

 50
270.0
  7
ROMANS
 72
     1
 11
633.9556516422977
 21
1075.886024989313
 31
0.0
100
AcDbText
  0
TEXT
  5
535F
330
1F
100
AcDbEntity
  8
0
 62
     4
100
AcDbText
 10
616.4985356714649
 20
926.6337704962913
 30
0.0
 40
6.912000000000002
  1

 50
270.0
  7
ROMANS
 72
     1
 11
616.4985356714649
 21
926.6337704962913
 31
0.0
100
AcDbText
  0
TEXT
  5
5360
330
1F
100
AcDbEntity
  8
0
 62
     2
100
AcDbText
 10
670.8315546482311
 20
1084.010303780351
 30
0.0
 40
9.2
  1

 50
270.0
 41
0.9
  7
ROMANS
 72
     1
 11
670.8315546482311
 21
1084.010303780351
 31
0.0
100
AcDbText
  0
TEXT
  5
5361
330
1F
100
AcDbEntity
  8
0
 62
     4
100
AcDbText
 10
616.7470922583377
 20
1198.202718995359
 30
0.0
 40
5.6
  1

 50
270.0
 41
0.9
  7
ROMANS
 72
     1
 11
616.7470922583377
 21
1198.202718995359
 31
0.0
100
AcDbText
  0
MTEXT
  5
54EC
330
1F
100
AcDbEntity
  8
4
100
AcDbMText
 10
1450.042386182836
 20
1186.110411664859
 30
0.0
 40
9.0
 41
0.0
 46
0.0
 71
     7
 72
     5
  1

 11
-1.836909530733566E-16
 21
-1.0
 31
0.0
 73
     1
 44
1.0
  0
TEXT
  5
54ED
330
1F
100
AcDbEntity
  8
0
 62
     4
100
AcDbText
 10
1253.372226925726
 20
1027.163433764281
 30
0.0
 40
5.760000000000001
  1

 50
270.0
  7
ROMANS
 72
     1
 11
1253.372226925726
 21
1027.163433764281
 31
0.0
100
AcDbText
  0
TEXT
  5
54EE
330
1F
100
AcDbEntity
  8
0
 62
     4
100
AcDbText
 10
1235.915110954893
 20
877.9111792712591
 30
0.0
 40
6.912000000000002
  1

 50
270.0
  7
ROMANS
 72
     1
 11
1235.915110954893
 21
877.9111792712591
 31
0.0
100
AcDbText
  0
TEXT
  5
54EF
330
1F
100
AcDbEntity
  8
0
 62
     2
100
AcDbText
 10
1290.248129931659
 20
1035.287712555319
 30
0.0
 40
9.2
  1

 50
270.0
 41
0.9
  7
ROMANS
 72
     1
 11
1290.248129931659
 21
1035.287712555319
 31
0.0
100
AcDbText
  0
TEXT
  5
54F0
330
1F
100
AcDbEntity
  8
0
 62
     4
100
AcDbText
 10
1236.163667541766
 20
1149.480127770327
 30
0.0
 40
5.6
  1

 50
270.0
 41
0.9
  7
ROMANS
 72
     1
 11
1236.163667541766
 21
1149.480127770327
 31
0.0
100
AcDbText
  0
MTEXT
  5
56DF
330
1F
100
AcDbEntity
  8
4
100
AcDbMText
 10
-1657.013371081067
 20
2801.522092150664
 30
0.0
 40
9.0
 41
0.0
 46
0.0
 71
     7
 72
     5
  1

 11
-1.836909530733566E-16
 21
-1.0
 31
0.0
 73
     1
 44
1.0
  0
TEXT
  5
56E0
330
1F
100
AcDbEntity
  8
0
 62
     4
100
AcDbText
 10
-1884.516506301522
 20
2942.890174053768
 30
0.0
 40
5.760000000000001
  1

 50
270.0
  7
ROMANS
 72
     1
 11
-1884.516506301522
 21
2942.890174053768
 31
0.0
100
AcDbText
  0
TEXT
  5
56E1
330
1F
100
AcDbEntity
  8
0
 62
     4
100
AcDbText
 10
-1901.973622272355
 20
2793.637919560746
 30
0.0
 40
6.912000000000002
  1

 50
270.0
  7
ROMANS
 72
     1
 11
-1901.973622272355
 21
2793.637919560746
 31
0.0
100
AcDbText
  0
TEXT
  5
56E2
330
1F
100
AcDbEntity
  8
0
 62
     2
100
AcDbText
 10
-1847.640603295589
 20
2951.014452844805
 30
0.0
 40
9.2
  1

 50
270.0
 41
0.9
  7
ROMANS
 72
     1
 11
-1847.640603295589
 21
2951.014452844805
 31
0.0
100
AcDbText
  0
TEXT
  5
56E3
330
1F
100
AcDbEntity
  8
0
 62
     4
100
AcDbText
 10
-1901.725065685482
 20
3065.206868059814
 30
0.0
 40
5.6
  1

 50
270.0
 41
0.9
  7
ROMANS
 72
     1
 11
-1901.725065685482
 21
3065.206868059814
 31
0.0
100
AcDbText
  0
MTEXT
  5
56E4
330
1F
100
AcDbEntity
  8
4
100
AcDbMText
 10
-1903.571958118714
 20
3265.911763719432
 30
0.0
 40
9.0
 41
0.0
 46
0.0
 71
     7
 72
     5
  1

 11
-1.836909530733566E-16
 21
-1.0
 31
0.0
 73
     1
 44
1.0
  0
MTEXT
  5
5914
330
1F
100
AcDbEntity
  8
4
100
AcDbMText
 10
1738.923005565985
 20
-5164.996293540606
 30
0.0
 40
9.0
 41
0.0
 46
0.0
 71
     7
 72
     5
  1

 11
-1.836909530733566E-16
 21
-1.0
 31
0.0
 73
     1
 44
1.0
  0
TEXT
  5
5915
330
1F
100
AcDbEntity
  8
0
 62
     4
100
AcDbText
 10
1448.052953298168
 20
-5198.212392314317
 30
0.0
 40
7.200000000000001
  1

 50
270.0
  7
ROMANS
 72
     1
 11
1448.052953298168
 21
-5198.212392314317
 31
0.0
100
AcDbText
  0
TEXT
  5
5916
330
1F
100
AcDbEntity
  8
0
 62
     4
100
AcDbText
 10
1426.231558334627
 20
-5384.777710430594
 30
0.0
 40
8.640000000000002
  1

 50
270.0
  7
ROMANS
 72
     1
 11
1426.231558334627
 21
-5384.777710430594
 31
0.0
100
AcDbText
  0
TEXT
  5
5917
330
1F
100
AcDbEntity
  8
0
 62
     2
100
AcDbText
 10
1494.147832055585
 20
-5188.05704382552
 30
0.0
 40
11.5
  1

 50
270.0
 41
0.9
  7
ROMANS
 72
     1
 11
1494.147832055585
 21
-5188.05704382552
 31
0.0
100
AcDbText
  0
TEXT
  5
5918
330
1F
100
AcDbEntity
  8
0
 62
     4
100
AcDbText
 10
1426.542254068218
 20
-5045.316524806759
 30
0.0
 40
7.0
  1

 50
270.0
 41
0.9
  7
ROMANS
 72
     1
 11
1426.542254068218
 21
-5045.316524806759
 31
0.0
100
AcDbText
  0
MTEXT
  5
5E52
330
1F
100
AcDbEntity
  8
4
100
AcDbMText
 10
1268.097800237656
 20
-4615.477386599714
 30
0.0
 40
9.0
 41
0.0
 46
0.0
 71
     7
 72
     5
  1

 73
     1
 44
1.0
  0
TEXT
  5
5E53
330
1F
100
AcDbEntity
  8
0
 62
     4
100
AcDbText
 10
1126.729718334553
 20
-4842.980521820169
 30
0.0
 40
5.760000000000001
  1

  7
ROMANS
 72
     1
 11
1126.729718334553
 21
-4842.980521820169
 31
0.0
100
AcDbText
  0
TEXT
  5
5E54
330
1F
100
AcDbEntity
  8
0
 62
     4
100
AcDbText
 10
1275.981972827574
 20
-4860.437637791002
 30
0.0
 40
6.912000000000002
  1

  7
ROMANS
 72
     1
 11
1275.981972827574
 21
-4860.437637791002
 31
0.0
100
AcDbText
  0
TEXT
  5
5E55
330
1F
100
AcDbEntity
  8
0
 62
     2
100
AcDbText
 10
1118.605439543515
 20
-4806.104618814235
 30
0.0
 40
9.2
  1

 41
0.9
  7
ROMANS
 72
     1
 11
1118.605439543515
 21
-4806.104618814235
 31
0.0
100
AcDbText
  0
TEXT
  5
5E56
330
1F
100
AcDbEntity
  8
0
 62
     4
100
AcDbText
 10
1004.413024328506
 20
-4860.189081204129
 30
0.0
 40
5.6
  1

 41
0.9
  7
ROMANS
 72
     1
 11
1004.413024328506
 21
-4860.189081204129
 31
0.0
100
AcDbText
  0
MTEXT
  5
5E57
330
1F
100
AcDbEntity
  8
4
100
AcDbMText
 10
803.7081286688881
 20
-4862.035973637361
 30
0.0
 40
9.0
 41
0.0
 46
0.0
 71
     7
 72
     5
  1

 73
     1
 44
1.0
  0
TEXT
  5
1D442
330
1F
100
AcDbEntity
  8
0
 62
     4
100
AcDbText
 10
9794.348142573459
 20
-71.1812123540268
 30
0.0
 40
1.44
  1

  7
ROMANS
 72
     1
 11
9794.348142573459
 21
-71.1812123540268
 31
0.0
100
AcDbText
  0
TEXT
  5
1D443
330
1F
100
AcDbEntity
  8
0
 62
     2
100
AcDbText
 10
9792.317072875696
 20
-61.96223660254429
 30
0.0
 40
2.3
  1

 41
0.9
  7
ROMANS
 72
     1
 11
9792.317072875696
 21
-61.96223660254429
 31
0.0
100
AcDbText
  0
MTEXT
  5
1D444
330
1F
100
AcDbEntity
  8
4
100
AcDbMText
 10
4938.535654565454
 20
1767.715952522872
 30
0.0
 40
9.0
 41
0.0
 46
0.0
 71
     7
 72
     5
  1

 11
4.040909046178904E-13
 21
-1.0
 31
0.0
 73
     1
 44
1.0
  0
TEXT
  5
1D445
330
1F
100
AcDbEntity
  8
0
 62
     4
100
AcDbText
 10
4711.032519344943
 20
1909.084034425884
 30
0.0
 40
5.760000000000001
  1

 50
270.0
  7
ROMANS
 72
     1
 11
4711.032519344943
 21
1909.084034425884
 31
0.0
100
AcDbText
  0
TEXT
  5
1D446
330
1F
100
AcDbEntity
  8
0
 62
     4
100
AcDbText
 10
4693.57540337417
 20
1759.831779932855
 30
0.0
 40
6.912000000000002
  1

 50
270.0
  7
ROMANS
 72
     1
 11
4693.57540337417
 21
1759.831779932855
 31
0.0
100
AcDbText
  0
TEXT
  5
1D447
330
1F
100
AcDbEntity
  8
0
 62
     2
100
AcDbText
 10
4747.908422350873
 20
1917.208313216936
 30
0.0
 40
9.2
  1

 50
270.0
 41
0.9
  7
ROMANS
 72
     1
 11
4747.908422350873
 21
1917.208313216936
 31
0.0
100
AcDbText
  0
TEXT
  5
1D448
330
1F
100
AcDbEntity
  8
0
 62
     4
100
AcDbText
 10
4693.823959960933
 20
2031.400728431923
 30
0.0
 40
5.6
  1

 50
270.0
 41
0.9
  7
ROMANS
 72
     1
 11
4693.823959960933
 21
2031.400728431923
 31
0.0
100
AcDbText
  0
MTEXT
  5
1D449
330
1F
100
AcDbEntity
  8
4
100
AcDbMText
 10
4691.97706752762
 20
2232.10562409154
 30
0.0
 40
9.0
 41
0.0
 46
0.0
 71
     7
 72
     5
  1

 11
4.040909046178904E-13
 21
-1.0
 31
0.0
 73
     1
 44
1.0
  0
MTEXT
  5
1D44A
330
1F
100
AcDbEntity
  8
4
100
AcDbMText
 10
5521.445821370673
 20
1857.737941833067
 30
0.0
 40
9.0
 41
0.0
 46
0.0
 71
     7
 72
     5
  1

 11
4.040909046178904E-13
 21
-1.0
 31
0.0
 73
     1
 44
1.0
  0
TEXT
  5
1D44B
330
1F
100
AcDbEntity
  8
0
 62
     4
100
AcDbText
 10
5324.858707025541
 20
1929.90679952146
 30
0.0
 40
5.760000000000001
  1

 50
270.0
  7
ROMANS
 72
     1
 11
5324.858707025541
 21
1929.90679952146
 31
0.0
100
AcDbText
  0
TEXT
  5
1D44C
330
1F
100
AcDbEntity
  8
0
 62
     4
100
AcDbText
 10
5307.401591054769
 20
1780.654545028432
 30
0.0
 40
6.912000000000002
  1

 50
270.0
  7
ROMANS
 72
     1
 11
5307.401591054769
 21
1780.654545028432
 31
0.0
100
AcDbText
  0
TEXT
  5
1D44D
330
1F
100
AcDbEntity
  8
0
 62
     2
100
AcDbText
 10
5361.734610031471
 20
1938.031078312513
 30
0.0
 40
9.2
  1

 50
270.0
 41
0.9
  7
ROMANS
 72
     1
 11
5361.734610031471
 21
1938.031078312513
 31
0.0
100
AcDbText
  0
TEXT
  5
1D44E
330
1F
100
AcDbEntity
  8
0
 62
     4
100
AcDbText
 10
5307.650147641531
 20
2052.2234935275
 30
0.0
 40
5.6
  1

 50
270.0
 41
0.9
  7
ROMANS
 72
     1
 11
5307.650147641531
 21
2052.2234935275
 31
0.0
100
AcDbText
  0
MTEXT
  5
1D44F
330
1F
100
AcDbEntity
  8
4
100
AcDbMText
 10
6140.945441566035
 20
2040.131186197337
 30
0.0
 40
9.0
 41
0.0
 46
0.0
 71
     7
 72
     5
  1

 11
4.040909046178904E-13
 21
-1.0
 31
0.0
 73
     1
 44
1.0
  0
TEXT
  5
1D450
330
1F
100
AcDbEntity
  8
0
 62
     4
100
AcDbText
 10
5944.275282308989
 20
1881.184208296679
 30
0.0
 40
5.760000000000001
  1

 50
270.0
  7
ROMANS
 72
     1
 11
5944.275282308989
 21
1881.184208296679
 31
0.0
100
AcDbText
  0
TEXT
  5
1D451
330
1F
100
AcDbEntity
  8
0
 62
     4
100
AcDbText
 10
5926.818166338217
 20
1731.93195380365
 30
0.0
 40
6.912000000000002
  1

 50
270.0
  7
ROMANS
 72
     1
 11
5926.818166338217
 21
1731.93195380365
 31
0.0
100
AcDbText
  0
TEXT
  5
1D452
330
1F
100
AcDbEntity
  8
0
 62
     2
100
AcDbText
 10
5981.151185314919
 20
1889.308487087731
 30
0.0
 40
9.2
  1

 50
270.0
 41
0.9
  7
ROMANS
 72
     1
 11
5981.151185314919
 21
1889.308487087731
 31
0.0
100
AcDbText
  0
TEXT
  5
1D453
330
1F
100
AcDbEntity
  8
0
 62
     4
100
AcDbText
 10
5927.066722924979
 20
2003.500902302718
 30
0.0
 40
5.6
  1

 50
270.0
 41
0.9
  7
ROMANS
 72
     1
 11
5927.066722924979
 21
2003.500902302718
 31
0.0
100
AcDbText
  0
MTEXT
  5
1D454
330
1F
100
AcDbEntity
  8
4
100
AcDbMText
 10
3033.889684301479
 20
3655.542866681886
 30
0.0
 40
9.0
 41
0.0
 46
0.0
 71
     7
 72
     5
  1

 11
4.040909046178904E-13
 21
-1.0
 31
0.0
 73
     1
 44
1.0
  0
TEXT
  5
1D455
330
1F
100
AcDbEntity
  8
0
 62
     4
100
AcDbText
 10
2806.386549080966
 20
3796.910948584897
 30
0.0
 40
5.760000000000001
  1

 50
270.0
  7
ROMANS
 72
     1
 11
2806.386549080966
 21
3796.910948584897
 31
0.0
100
AcDbText
  0
TEXT
  5
1D456
330
1F
100
AcDbEntity
  8
0
 62
     4
100
AcDbText
 10
2788.929433110194
 20
3647.658694091868
 30
0.0
 40
6.912000000000002
  1

 50
270.0
  7
ROMANS
 72
     1
 11
2788.929433110194
 21
3647.658694091868
 31
0.0
100
AcDbText
  0
TEXT
  5
1D457
330
1F
100
AcDbEntity
  8
0
 62
     2
100
AcDbText
 10
2843.262452086897
 20
3805.035227375949
 30
0.0
 40
9.2
  1

 50
270.0
 41
0.9
  7
ROMANS
 72
     1
 11
2843.262452086897
 21
3805.035227375949
 31
0.0
100
AcDbText
  0
TEXT
  5
1D458
330
1F
100
AcDbEntity
  8
0
 62
     4
100
AcDbText
 10
2789.177989696957
 20
3919.227642590936
 30
0.0
 40
5.6
  1

 50
270.0
 41
0.9
  7
ROMANS
 72
     1
 11
2789.177989696957
 21
3919.227642590936
 31
0.0
100
AcDbText
  0
MTEXT
  5
1D459
330
1F
100
AcDbEntity
  8
4
100
AcDbMText
 10
2787.331097263644
 20
4119.932538250554
 30
0.0
 40
9.0
 41
0.0
 46
0.0
 71
     7
 72
     5
  1

 11
4.040909046178904E-13
 21
-1.0
 31
0.0
 73
     1
 44
1.0
  0
MTEXT
  5
1D45A
330
1F
100
AcDbEntity
  8
4
100
AcDbMText
 10
6429.826060951751
 20
-4310.975519008011
 30
0.0
 40
9.0
 41
0.0
 46
0.0
 71
     7
 72
     5
  1

 11
4.040909046178904E-13
 21
-1.0
 31
0.0
 73
     1
 44
1.0
  0
TEXT
  5
1D45B
330
1F
100
AcDbEntity
  8
0
 62
     4
100
AcDbText
 10
6138.956008683948
 20
-4344.19161778184
 30
0.0
 40
7.200000000000001
  1

 50
270.0
  7
ROMANS
 72
     1
 11
6138.956008683948
 21
-4344.19161778184
 31
0.0
100
AcDbText
  0
TEXT
  5
1D45C
330
1F
100
AcDbEntity
  8
0
 62
     4
100
AcDbText
 10
6117.134613720482
 20
-4530.756935898126
 30
0.0
 40
8.640000000000002
  1

 50
270.0
  7
ROMANS
 72
     1
 11
6117.134613720482
 21
-4530.756935898126
 31
0.0
100
AcDbText
  0
TEXT
  5
1D45D
330
1F
100
AcDbEntity
  8
0
 62
     2
100
AcDbText
 10
6185.050887441361
 20
-4334.036269293025
 30
0.0
 40
11.5
  1

 50
270.0
 41
0.9
  7
ROMANS
 72
     1
 11
6185.050887441361
 21
-4334.036269293025
 31
0.0
100
AcDbText
  0
TEXT
  5
1D45E
330
1F
100
AcDbEntity
  8
0
 62
     4
100
AcDbText
 10
6117.445309453936
 20
-4191.295750274291
 30
0.0
 40
7.0
  1

 50
270.0
 41
0.9
  7
ROMANS
 72
     1
 11
6117.445309453936
 21
-4191.295750274291
 31
0.0
100
AcDbText
  0
MTEXT
  5
1D45F
330
1F
100
AcDbEntity
  8
4
100
AcDbMText
 10
5959.000855623201
 20
-3761.45661206731
 30
0.0
 40
9.0
 41
0.0
 46
0.0
 71
     7
 72
     5
  1

 73
     1
 44
1.0
  0
TEXT
  5
1D460
330
1F
100
AcDbEntity
  8
0
 62
     4
100
AcDbText
 10
5817.632773720189
 20
-3988.959747287822
 30
0.0
 40
5.760000000000001
  1

  7
ROMANS
 72
     1
 11
5817.632773720189
 21
-3988.959747287822
 31
0.0
100
AcDbText
  0
TEXT
  5
1D461
330
1F
100
AcDbEntity
  8
0
 62
     4
100
AcDbText
 10
5966.885028213217
 20
-4006.416863258595
 30
0.0
 40
6.912000000000002
  1

  7
ROMANS
 72
     1
 11
5966.885028213217
 21
-4006.416863258595
 31
0.0
100
AcDbText
  0
TEXT
  5
1D462
330
1F
100
AcDbEntity
  8
0
 62
     2
100
AcDbText
 10
5809.508494929136
 20
-3952.083844281892
 30
0.0
 40
9.2
  1

 41
0.9
  7
ROMANS
 72
     1
 11
5809.508494929136
 21
-3952.083844281892
 31
0.0
100
AcDbText
  0
TEXT
  5
1D463
330
1F
100
AcDbEntity
  8
0
 62
     4
100
AcDbText
 10
5695.316079714149
 20
-4006.168306671832
 30
0.0
 40
5.6
  1

 41
0.9
  7
ROMANS
 72
     1
 11
5695.316079714149
 21
-4006.168306671832
 31
0.0
100
AcDbText
  0
MTEXT
  5
1D464
330
1F
100
AcDbEntity
  8
4
100
AcDbMText
 10
5494.611184054532
 20
-4008.015199105145
 30
0.0
 40
9.0
 41
0.0
 46
0.0
 71
     7
 72
     5
  1

 73
     1
 44
1.0
  0
POINT
  5
21A0B
330
1F
100
AcDbEntity
  8
0
 60
     1
100
AcDbPoint
 10
6296.832327607292
 20
-17329.65161048935
 30
0.0
1001
GENIUS_GENODEF_13
1002
{
1000
HIER
1070
     1
1002
}
1002
{
1000
MANEDIT
1070
     0
1002
}
1002
{
1000
NOSEL
1070
     0
1002
}
1002
{
1000
BEHIND
1070
     0
1002
}
1002
{
1000
OTHER
1070
     0
1002
}
1002
{
1000
REACTOR
1002
}
1001
GENIUS_GENOENT_13
1002
{
1000
MYREF
1005
21A0B
1002
}
1002
{
1000
GRP
1005
0
1002
}
1001
GENIUS_GENOBJ-N-FIL_13
1002
{
1000
OWNER
1000
GEN
1002
}
1001
GENIUS_GENOLIS_13
1002
{
1000
ENT
1005
21A03
1002
}
  0
POINT
  5
21A0E
330
1F
100
AcDbEntity
  8
0
 60
     1
100
AcDbPoint
 10
6296.832327607292
 20
-17329.65161048935
 30
0.0
1001
GENIUS_GENOLIS_13
1002
{
1000
ENT
1005
21A0C
1002
}
1001
GENIUS_GENOENT_13
1002
{
1000
MYREF
1005
21A0E
1002
}
1002
{
1000
GRP
1005
0
1002
}
1001
GENIUS_GENOBJ-N-FIL_13
1002
{
1000
OWNER
1000
GEN
1002
}
1001
GENIUS_GENODEF_13
1002
{
1000
HIER
1070
     1
1002
}
1002
{
1000
MANEDIT
1070
     0
1002
}
1002
{
1000
NOSEL
1070
     0
1002
}
1002
{
1000
BEHIND
1070
     0
1002
}
1002
{
1000
OTHER
1070
     0
1002
}
1002
{
1000
REACTOR
1002
}
  0
POINT
  5
21A10
330
1F
100
AcDbEntity
  8
0
 60
     1
100
AcDbPoint
 10
6296.832327607292
 20
-17329.65161048935
 30
0.0
1001
GENIUS_GENOENT_13
1002
{
1000
MYREF
1005
21A10
1002
}
1002
{
1000
GRP
1005
0
1002
}
1001
GENIUS_GENOBJ-N-FIL_13
1002
{
1000
OWNER
1000
GEN
1002
}
1001
GENIUS_GENODEF_13
1002
{
1000
HIER
1070
     1
1002
}
1002
{
1000
MANEDIT
1070
     0
1002
}
1002
{
1000
NOSEL
1070
     0
1002
}
1002
{
1000
BEHIND
1070
     0
1002
}
1002
{
1000
OTHER
1070
     0
1002
}
1002
{
1000
REACTOR
1002
}
1001
GENIUS_GENOLIS_13
1002
{
1000
ENT
1005
21A08
1002
}
  0
POINT
  5
21A12
330
1F
100
AcDbEntity
  8
0
 60
     1
100
AcDbPoint
 10
6296.832327607292
 20
-17329.65161048935
 30
0.0
1001
GENIUS_GENOLIS_13
1002
{
1000
ENT
1005
21A0A
1002
}
1001
GENIUS_GENOENT_13
1002
{
1000
MYREF
1005
21A12
1002
}
1002
{
1000
GRP
1005
0
1002
}
1001
GENIUS_GENOBJ-N-FIL_13
1002
{
1000
OWNER
1000
GEN
1002
}
1001
GENIUS_GENODEF_13
1002
{
1000
HIER
1070
     1
1002
}
1002
{
1000
MANEDIT
1070
     0
1002
}
1002
{
1000
NOSEL
1070
     0
1002
}
1002
{
1000
BEHIND
1070
     0
1002
}
1002
{
1000
OTHER
1070
     0
1002
}
1002
{
1000
REACTOR
1002
}
  0
POINT
  5
21A1D
330
1F
100
AcDbEntity
  8
0
 60
     1
100
AcDbPoint
 10
6296.832327592519
 20
18146.68161251309
 30
0.0
1001
GENIUS_GENODEF_13
1002
{
1000
HIER
1070
     1
1002
}
1002
{
1000
MANEDIT
1070
     0
1002
}
1002
{
1000
NOSEL
1070
     0
1002
}
1002
{
1000
BEHIND
1070
     0
1002
}
1002
{
1000
OTHER
1070
     0
1002
}
1002
{
1000
REACTOR
1002
}
1001
GENIUS_GENOENT_13
1002
{
1000
MYREF
1005
21A1D
1002
}
1002
{
1000
GRP
1005
0
1002
}
1001
GENIUS_GENOBJ-N-FIL_13
1002
{
1000
OWNER
1000
GEN
1002
}
1001
GENIUS_GENOLIS_13
1002
{
1000
ENT
1005
21A14
1002
}
  0
POINT
  5
21A1E
330
1F
100
AcDbEntity
  8
0
 60
     1
100
AcDbPoint
 10
6296.832327592519
 20
18146.68161251309
 30
0.0
1001
GENIUS_GENOLIS_13
1002
{
1000
ENT
1005
21A1B
1002
}
1001
GENIUS_GENOENT_13
1002
{
1000
MYREF
1005
21A1E
1002
}
1002
{
1000
GRP
1005
0
1002
}
1001
GENIUS_GENOBJ-N-FIL_13
1002
{
1000
OWNER
1000
GEN
1002
}
1001
GENIUS_GENODEF_13
1002
{
1000
HIER
1070
     1
1002
}
1002
{
1000
MANEDIT
1070
     0
1002
}
1002
{
1000
NOSEL
1070
     0
1002
}
1002
{
1000
BEHIND
1070
     0
1002
}
1002
{
1000
OTHER
1070
     0
1002
}
1002
{
1000
REACTOR
1002
}
  0
POINT
  5
21A1F
330
1F
100
AcDbEntity
  8
0
 60
     1
100
AcDbPoint
 10
6296.832327592519
 20
18146.68161251309
 30
0.0
1001
GENIUS_GENOENT_13
1002
{
1000
MYREF
1005
21A1F
1002
}
1002
{
1000
GRP
1005
0
1002
}
1001
GENIUS_GENOBJ-N-FIL_13
1002
{
1000
OWNER
1000
GEN
1002
}
1001
GENIUS_GENODEF_13
1002
{
1000
HIER
1070
     1
1002
}
1002
{
1000
MANEDIT
1070
     0
1002
}
1002
{
1000
NOSEL
1070
     0
1002
}
1002
{
1000
BEHIND
1070
     0
1002
}
1002
{
1000
OTHER
1070
     0
1002
}
1002
{
1000
REACTOR
1002
}
1001
GENIUS_GENOLIS_13
1002
{
1000
ENT
1005
21A19
1002
}
  0
POINT
  5
21A20
330
1F
100
AcDbEntity
  8
0
 60
     1
100
AcDbPoint
 10
6296.832327592519
 20
18146.68161251309
 30
0.0
1001
GENIUS_GENOLIS_13
1002
{
1000
ENT
1005
21A1C
1002
}
1001
GENIUS_GENOENT_13
1002
{
1000
MYREF
1005
21A20
1002
}
1002
{
1000
GRP
1005
0
1002
}
1001
GENIUS_GENOBJ-N-FIL_13
1002
{
1000
OWNER
1000
GEN
1002
}
1001
GENIUS_GENODEF_13
1002
{
1000
HIER
1070
     1
1002
}
1002
{
1000
MANEDIT
1070
     0
1002
}
1002
{
1000
NOSEL
1070
     0
1002
}
1002
{
1000
BEHIND
1070
     0
1002
}
1002
{
1000
OTHER
1070
     0
1002
}
1002
{
1000
REACTOR
1002
}
  0
CIRCLE
  5
28306
330
1F
100
AcDbEntity
  8
0
100
AcDbCircle
 10
341.8283826974921
 20
555.3675039843429
 30
0.0
 40
13.0
  0
CIRCLE
  5
28307
330
1F
100
AcDbEntity
  8
0
100
AcDbCircle
 10
341.8283826974921
 20
555.3675039843429
 30
0.0
 40
11.0
  0
CIRCLE
  5
28308
330
1F
100
AcDbEntity
  8
0
100
AcDbCircle
 10
341.8283826974921
 20
555.3675039843429
 30
0.0
 40
23.5
  0
CIRCLE
  5
28309
330
1F
100
AcDbEntity
  8
0
100
AcDbCircle
 10
341.8283826974921
 20
555.3675039843429
 30
0.0
 40
21.5
  0
CIRCLE
  5
2830A
330
1F
100
AcDbEntity
  8
0
100
AcDbCircle
 10
341.8283826974921
 20
555.3675039843429
 30
0.0
 40
34.0
  0
CIRCLE
  5
2830B
330
1F
100
AcDbEntity
  8
0
100
AcDbCircle
 10
341.8283826974921
 20
555.3675039843429
 30
0.0
 40
32.0
  0
CIRCLE
  5
2830C
330
1F
100
AcDbEntity
  8
0
100
AcDbCircle
 10
341.8283826974921
 20
555.3675039843429
 30
0.0
 40
44.5
  0
CIRCLE
  5
2830D
330
1F
100
AcDbEntity
  8
0
100
AcDbCircle
 10
341.8283826974921
 20
555.3675039843429
 30
0.0
 40
42.5
  0
CIRCLE
  5
2830E
330
1F
100
AcDbEntity
  8
0
100
AcDbCircle
 10
341.8283826974921
 20
555.3675039843429
 30
0.0
 40
55.0
  0
CIRCLE
  5
2830F
330
1F
100
AcDbEntity
  8
0
100
AcDbCircle
 10
341.8283826974921
 20
555.3675039843429
 30
0.0
 40
63.5
  0
CIRCLE
  5
28310
330
1F
100
AcDbEntity
  8
0
100
AcDbCircle
 10
341.8283826974921
 20
555.3675039843429
 30
0.0
 40
65.5
  0
CIRCLE
  5
28311
330
1F
100
AcDbEntity
  8
0
100
AcDbCircle
 10
341.8283826974921
 20
555.3675039843429
 30
0.0
 40
53.0
  0
ARC
  5
2831C
330
1F
100
AcDbEntity
  8
0
100
AcDbCircle
 10
253.4400350491751
 20
555.367503984311
 30
0.0
 40
3.5
100
AcDbArc
 50
45.20867533996131
 51
270.000000000026
  0
ARC
  5
2831D
330
1F
100
AcDbEntity
  8
0
100
AcDbCircle
 10
264.3601998830927
 20
566.3675039843147
 30
0.0
 40
12.0
100
AcDbArc
 50
225.2086753399613
 51
270.000000000026
1001
GENIUS_GENODEF_13
1002
{
1000
HIER
1070
     0
1002
}
1002
{
1000
MANEDIT
1070
     0
1002
}
1002
{
1000
NOSEL
1070
     0
1002
}
1002
{
1000
BEHIND
1070
     0
1002
}
1002
{
1000
OTHER
1070
     0
1002
}
1002
{
1000
REACTOR
1002
}
1001
GENIUS_GENOBJ-N-FIL_13
1002
{
1000
OWNER
1000
GEN
1002
}
  0
ARC
  5
2831E
330
1F
100
AcDbEntity
  8
0
100
AcDbCircle
 10
253.4400350491751
 20
555.367503984311
 30
0.0
 40
5.5
100
AcDbArc
 50
45.20867533996131
 51
270.000000000026
  0
ARC
  5
2831F
330
1F
100
AcDbEntity
  8
0
100
AcDbCircle
 10
264.3601998830927
 20
566.3675039843147
 30
0.0
 40
10.0
100
AcDbArc
 50
225.2086753399613
 51
270.000000000026
1001
GENIUS_GENODEF_13
1002
{
1000
HIER
1070
     0
1002
}
1002
{
1000
MANEDIT
1070
     0
1002
}
1002
{
1000
NOSEL
1070
     0
1002
}
1002
{
1000
BEHIND
1070
     0
1002
}
1002
{
1000
OTHER
1070
     0
1002
}
1002
{
1000
REACTOR
1002
}
1001
GENIUS_GENOBJ-N-FIL_13
1002
{
1000
OWNER
1000
GEN
1002
}
  0
LINE
  5
28320
330
1F
100
AcDbEntity
  8
0
100
AcDbLine
 10
264.3601998830977
 20
554.3675039843156
 30
0.0
 11
333.8283826974925
 21
554.3675039843438
 31
0.0
  0
ARC
  5
28321
330
1F
100
AcDbEntity
  8
0
100
AcDbCircle
 10
333.8283826974953
 20
547.367503984342
 30
0.0
 40
7.0
100
AcDbArc
 50
0.0000000000260551
 51
90.00000000002606
1001
GENIUS_GENODEF_13
1002
{
1000
HIER
1070
     0
1002
}
1002
{
1000
MANEDIT
1070
     0
1002
}
1002
{
1000
NOSEL
1070
     0
1002
}
1002
{
1000
BEHIND
1070
     0
1002
}
1002
{
1000
OTHER
1070
     0
1002
}
1002
{
1000
REACTOR
1002
}
1001
GENIUS_GENOBJ-N-FIL_13
1002
{
1000
OWNER
1000
GEN
1002
}
  0
LINE
  5
28322
330
1F
100
AcDbEntity
  8
0
100
AcDbLine
 10
264.3601998830968
 20
556.3675039843156
 30
0.0
 11
333.8283826974953
 21
556.3675039843438
 31
0.0
  0
ARC
  5
28323
330
1F
100
AcDbEntity
  8
0
100
AcDbCircle
 10
333.8283826974989
 20
547.3675039843447
 30
0.0
 40
9.0
100
AcDbArc
 50
0.0000000000260551
 51
90.00000000002606
1001
GENIUS_GENODEF_13
1002
{
1000
HIER
1070
     0
1002
}
1002
{
1000
MANEDIT
1070
     0
1002
}
1002
{
1000
NOSEL
1070
     0
1002
}
1002
{
1000
BEHIND
1070
     0
1002
}
1002
{
1000
OTHER
1070
     0
1002
}
1002
{
1000
REACTOR
1002
}
1001
GENIUS_GENOBJ-N-FIL_13
1002
{
1000
OWNER
1000
GEN
1002
}
  0
LINE
  5
28324
330
1F
100
AcDbEntity
  8
0
100
AcDbLine
 10
253.4343780138984
 20
549.867503984311
 30
0.0
 11
256.4400350491774
 21
549.8675039843156
 31
0.0
  0
LINE
  5
28325
330
1F
100
AcDbEntity
  8
0
100
AcDbLine
 10
256.4400350491774
 20
549.867503984311
 30
0.0
 11
256.4400350491765
 21
551.867503984311
 31
0.0
  0
LINE
  5
28326
330
1F
100
AcDbEntity
  8
0
100
AcDbLine
 10
253.4400350491765
 20
551.867503984312
 30
0.0
 11
256.4400350491765
 21
551.8675039843129
 31
0.0
  0
ARC
  5
28327
330
1F
100
AcDbEntity
  8
0
100
AcDbCircle
 10
341.8283826975314
 20
466.9791563360287
 30
0.0
 40
3.5
100
AcDbArc
 50
135.2086753399984
 51
0.0000000000260551
  0
ARC
  5
28328
330
1F
100
AcDbEntity
  8
0
100
AcDbCircle
 10
330.8283826975271
 20
477.8993211699445
 30
0.0
 40
12.0
100
AcDbArc
 50
315.2086753399984
 51
0.0000000000260551
1001
GENIUS_GENODEF_13
1002
{
1000
HIER
1070
     0
1002
}
1002
{
1000
MANEDIT
1070
     0
1002
}
1002
{
1000
NOSEL
1070
     0
1002
}
1002
{
1000
BEHIND
1070
     0
1002
}
1002
{
1000
OTHER
1070
     0
1002
}
1002
{
1000
REACTOR
1002
}
1001
GENIUS_GENOBJ-N-FIL_13
1002
{
1000
OWNER
1000
GEN
1002
}
  0
ARC
  5
28329
330
1F
100
AcDbEntity
  8
0
100
AcDbCircle
 10
341.8283826975314
 20
466.9791563360287
 30
0.0
 40
5.499999999999999
100
AcDbArc
 50
135.2086753399984
 51
0.0000000000260551
  0
ARC
  5
2832A
330
1F
100
AcDbEntity
  8
0
100
AcDbCircle
 10
330.8283826975271
 20
477.8993211699445
 30
0.0
 40
9.999999999999998
100
AcDbArc
 50
315.2086753399984
 51
0.0000000000260551
1001
GENIUS_GENODEF_13
1002
{
1000
HIER
1070
     0
1002
}
1002
{
1000
MANEDIT
1070
     0
1002
}
1002
{
1000
NOSEL
1070
     0
1002
}
1002
{
1000
BEHIND
1070
     0
1002
}
1002
{
1000
OTHER
1070
     0
1002
}
1002
{
1000
REACTOR
1002
}
1001
GENIUS_GENOBJ-N-FIL_13
1002
{
1000
OWNER
1000
GEN
1002
}
  0
LINE
  5
2832B
330
1F
100
AcDbEntity
  8
0
100
AcDbLine
 10
342.8283826975271
 20
477.899321169949
 30
0.0
 11
342.8283826974989
 21
547.3675039843483
 31
0.0
  0
LINE
  5
2832C
330
1F
100
AcDbEntity
  8
0
100
AcDbLine
 10
340.8283826975235
 20
477.8993211699481
 30
0.0
 11
340.8283826974953
 21
547.3675039843447
 31
0.0
  0
LINE
  5
2832D
330
1F
100
AcDbEntity
  8
0
100
AcDbLine
 10
347.3283826975314
 20
466.9734993007515
 30
0.0
 11
347.3283826975266
 21
469.9791563360314
 31
0.0
  0
LINE
  5
2832E
330
1F
100
AcDbEntity
  8
0
100
AcDbLine
 10
347.3283826975303
 20
469.9791563360296
 30
0.0
 11
345.3283826975303
 21
469.9791563360305
 31
0.0
  0
LINE
  5
2832F
330
1F
100
AcDbEntity
  8
0
100
AcDbLine
 10
345.3283826975278
 20
466.9791563360296
 30
0.0
 11
345.3283826975266
 21
469.9791563360305
 31
0.0
  0
ARC
  5
28330
330
1F
100
AcDbEntity
  8
0
100
AcDbCircle
 10
430.2167303458091
 20
555.3675039843829
 30
0.0
 40
3.5
100
AcDbArc
 50
225.2086753399613
 51
90.00000000002606
  0
ARC
  5
28331
330
1F
100
AcDbEntity
  8
0
100
AcDbCircle
 10
419.2965655118912
 20
544.3675039843783
 30
0.0
 40
12.0
100
AcDbArc
 50
45.20867533996131
 51
90.00000000002606
1001
GENIUS_GENODEF_13
1002
{
1000
HIER
1070
     0
1002
}
1002
{
1000
MANEDIT
1070
     0
1002
}
1002
{
1000
NOSEL
1070
     0
1002
}
1002
{
1000
BEHIND
1070
     0
1002
}
1002
{
1000
OTHER
1070
     0
1002
}
1002
{
1000
REACTOR
1002
}
1001
GENIUS_GENOBJ-N-FIL_13
1002
{
1000
OWNER
1000
GEN
1002
}
  0
ARC
  5
28332
330
1F
100
AcDbEntity
  8
0
100
AcDbCircle
 10
430.2167303458091
 20
555.3675039843829
 30
0.0
 40
5.5
100
AcDbArc
 50
225.2086753399613
 51
90.00000000002606
  0
ARC
  5
28333
330
1F
100
AcDbEntity
  8
0
100
AcDbCircle
 10
419.2965655118912
 20
544.3675039843783
 30
0.0
 40
10.0
100
AcDbArc
 50
45.20867533996131
 51
90.00000000002606
1001
GENIUS_GENODEF_13
1002
{
1000
HIER
1070
     0
1002
}
1002
{
1000
MANEDIT
1070
     0
1002
}
1002
{
1000
NOSEL
1070
     0
1002
}
1002
{
1000
BEHIND
1070
     0
1002
}
1002
{
1000
OTHER
1070
     0
1002
}
1002
{
1000
REACTOR
1002
}
1001
GENIUS_GENOBJ-N-FIL_13
1002
{
1000
OWNER
1000
GEN
1002
}
  0
LINE
  5
28334
330
1F
100
AcDbEntity
  8
0
100
AcDbLine
 10
419.2965655118865
 20
556.3675039843783
 30
0.0
 11
349.8283826974916
 21
556.3675039843502
 31
0.0
  0
ARC
  5
28335
330
1F
100
AcDbEntity
  8
0
100
AcDbCircle
 10
349.8283826974889
 20
563.3675039843511
 30
0.0
 40
7.0
100
AcDbArc
 50
180.0000000000261
 51
270.000000000026
1001
GENIUS_GENODEF_13
1002
{
1000
HIER
1070
     0
1002
}
1002
{
1000
MANEDIT
1070
     0
1002
}
1002
{
1000
NOSEL
1070
     0
1002
}
1002
{
1000
BEHIND
1070
     0
1002
}
1002
{
1000
OTHER
1070
     0
1002
}
1002
{
1000
REACTOR
1002
}
1001
GENIUS_GENOBJ-N-FIL_13
1002
{
1000
OWNER
1000
GEN
1002
}
  0
LINE
  5
28336
330
1F
100
AcDbEntity
  8
0
100
AcDbLine
 10
419.2965655118874
 20
554.3675039843774
 30
0.0
 11
349.8283826974889
 21
554.3675039843502
 31
0.0
  0
ARC
  5
28337
330
1F
100
AcDbEntity
  8
0
100
AcDbCircle
 10
349.8283826974853
 20
563.3675039843483
 30
0.0
 40
9.0
100
AcDbArc
 50
180.0000000000261
 51
270.000000000026
1001
GENIUS_GENODEF_13
1002
{
1000
HIER
1070
     0
1002
}
1002
{
1000
MANEDIT
1070
     0
1002
}
1002
{
1000
NOSEL
1070
     0
1002
}
1002
{
1000
BEHIND
1070
     0
1002
}
1002
{
1000
OTHER
1070
     0
1002
}
1002
{
1000
REACTOR
1002
}
1001
GENIUS_GENOBJ-N-FIL_13
1002
{
1000
OWNER
1000
GEN
1002
}
  0
LINE
  5
28338
330
1F
100
AcDbEntity
  8
0
100
AcDbLine
 10
430.2223873810858
 20
560.8675039843829
 30
0.0
 11
427.2167303458068
 21
560.8675039843783
 31
0.0
  0
LINE
  5
28339
330
1F
100
AcDbEntity
  8
0
100
AcDbLine
 10
427.2167303458068
 20
560.867503984382
 30
0.0
 11
427.2167303458077
 21
558.867503984382
 31
0.0
  0
LINE
  5
2833A
330
1F
100
AcDbEntity
  8
0
100
AcDbLine
 10
430.2167303458077
 20
558.867503984382
 30
0.0
 11
427.2167303458077
 21
558.8675039843802
 31
0.0
  0
ARC
  5
2833B
330
1F
100
AcDbEntity
  8
0
100
AcDbCircle
 10
341.8283826974528
 20
643.7558516326653
 30
0.0
 40
3.5
100
AcDbArc
 50
315.2086753399984
 51
180.0000000000261
  0
ARC
  5
2833C
330
1F
100
AcDbEntity
  8
0
100
AcDbCircle
 10
352.8283826974571
 20
632.8356867987495
 30
0.0
 40
12.0
100
AcDbArc
 50
135.2086753399984
 51
180.0000000000261
1001
GENIUS_GENODEF_13
1002
{
1000
HIER
1070
     0
1002
}
1002
{
1000
MANEDIT
1070
     0
1002
}
1002
{
1000
NOSEL
1070
     0
1002
}
1002
{
1000
BEHIND
1070
     0
1002
}
1002
{
1000
OTHER
1070
     0
1002
}
1002
{
1000
REACTOR
1002
}
1001
GENIUS_GENOBJ-N-FIL_13
1002
{
1000
OWNER
1000
GEN
1002
}
  0
ARC
  5
2833D
330
1F
100
AcDbEntity
  8
0
100
AcDbCircle
 10
341.8283826974528
 20
643.7558516326653
 30
0.0
 40
5.499999999999999
100
AcDbArc
 50
315.2086753399984
 51
180.0000000000261
  0
ARC
  5
2833E
330
1F
100
AcDbEntity
  8
0
100
AcDbCircle
 10
352.8283826974571
 20
632.8356867987495
 30
0.0
 40
9.999999999999998
100
AcDbArc
 50
135.2086753399984
 51
180.0000000000261
1001
GENIUS_GENODEF_13
1002
{
1000
HIER
1070
     0
1002
}
1002
{
1000
MANEDIT
1070
     0
1002
}
1002
{
1000
NOSEL
1070
     0
1002
}
1002
{
1000
BEHIND
1070
     0
1002
}
1002
{
1000
OTHER
1070
     0
1002
}
1002
{
1000
REACTOR
1002
}
1001
GENIUS_GENOBJ-N-FIL_13
1002
{
1000
OWNER
1000
GEN
1002
}
  0
LINE
  5
2833F
330
1F
100
AcDbEntity
  8
0
100
AcDbLine
 10
340.8283826974571
 20
632.8356867987441
 30
0.0
 11
340.8283826974853
 21
563.3675039843447
 31
0.0
  0
LINE
  5
28340
330
1F
100
AcDbEntity
  8
0
100
AcDbLine
 10
342.8283826974607
 20
632.835686798745
 30
0.0
 11
342.8283826974889
 21
563.3675039843483
 31
0.0
  0
LINE
  5
28341
330
1F
100
AcDbEntity
  8
0
100
AcDbLine
 10
336.3283826974528
 20
643.7615086679425
 30
0.0
 11
336.3283826974575
 21
640.7558516326626
 31
0.0
  0
LINE
  5
28342
330
1F
100
AcDbEntity
  8
0
100
AcDbLine
 10
336.3283826974539
 20
640.7558516326635
 30
0.0
 11
338.3283826974539
 21
640.7558516326635
 31
0.0
  0
LINE
  5
28343
330
1F
100
AcDbEntity
  8
0
100
AcDbLine
 10
338.3283826974564
 20
643.7558516326635
 30
0.0
 11
338.3283826974575
 21
640.7558516326635
 31
0.0
  0
LINE
  5
28928
330
1F
100
AcDbEntity
  8
0
  6
CENTER
 62
     2
100
AcDbLine
 10
243.4382978357216
 20
555.3675039843031
 30
0.0
 11
439.5255832119547
 21
555.3675039843824
 31
0.0
  0
LINE
  5
28929
330
1F
100
AcDbEntity
  8
0
  6
CENTER
 62
     2
100
AcDbLine
 10
341.8283826975257
 20
460.3419334672924
 30
0.0
 11
341.8283826974493
 21
651.0816319304961
 31
0.0
  0
CIRCLE
  5
289C2
330
1F
100
AcDbEntity
  8
0
  6
CENTER
 62
     2
100
AcDbCircle
 10
341.8283826974921
 20
555.3675039843429
 30
0.0
 40
88.38834764832245
  0
DIMENSION
  5
289F8
330
1F
100
AcDbEntity
  8
AM_5
100
AcDbDimension
280
     0
  2
*D10
 10
407.3283826974921
 20
420.1032239380705
 30
0.0
 11
341.8283826974921
 21
431.1032239380705
 31
0.0
 70
    32
  1
%%c<>
 71
     5
 42
131.0
 73
     0
 74
     0
 75
     0
 51
359.9999999999769
  3
AM_ISO$0
100
AcDbAlignedDimension
 13
276.3283826974921
 23
555.3675039843165
 33
0.0
 14
407.3283826974921
 24
555.3675039843695
 34
0.0
 50
0.0000000000232053
100
AcDbRotatedDimension
1001
ACAD
1000
DSTYLE
1002
{
1070
   271
1070
     1
1002
}
1001
ACAD_DSTYLE_DIMINSPECT
1070
   396
1000
100%
1070
   395
1000

1070
   394
1070
    33
1070
   393
1070
     0
  0
DIMENSION
  5
28B04
330
1F
100
AcDbEntity
  8
AM_5
100
AcDbDimension
280
     0
  2
*D16
 10
404.0592990203535
 20
492.5995738478648
 30
0.0
 11
243.8733602937411
 21
632.3381954137925
 31
0.0
 70
   163
 71
     5
 42
176.776695296645
 73
     0
 74
     0
 75
     0
 51
359.9999999999769
  3
AM_ISO$3
100
AcDbDiametricDimension
 15
279.5974663746291
 25
618.1354341208184
 35
0.0
 40
0.0
1001
ACAD_DSTYLE_DIMRADIAL_EXTENSION
1070
   387
1070
     1
1070
   388
1040
0.0
1070
   390
1040
0.0
1001
ACAD_DSTYLE_DIMINSPECT
1070
   396
1000
100%
1070
   395
1000

1070
   394
1070
    33
1070
   393
1070
     0
1001
ACAD
1000
DSTYLE
1002
{
1070
   271
1070
     0
1002
}
  0
DIMENSION
  5
29662
330
1F
100
AcDbEntity
  8
AM_5
100
AcDbDimension
280
     0
  2
*D39
 10
341.8283826974493
 20
651.0816319304961
 30
0.0
 11
247.6504438854332
 21
499.8286543131314
 31
0.0
 70
   162
 71
     5
 42
1.570796326794892
 73
     0
 74
     0
 75
     0
 51
359.9999999999769
  3
AM_ISO$2
100
AcDb2LineAngularDimension
 13
243.4382978357216
 23
555.3675039843031
 33
0.0
 14
439.5255832119547
 24
555.3675039843824
 34
0.0
 15
341.8283826975257
 25
460.3419334672924
 35
0.0
 16
287.1610981900423
 26
460.6809897055369
 36
0.0
1001
ACAD_DSTYLE_DIMINSPECT
1070
   396
1000
100%
1070
   395
1000

1070
   394
1070
    33
1070
   393
1070
     0
1001
ACAD
1000
DSTYLE
1002
{
1070
   271
1070
     1
1002
}
  0
ENDSEC
  0
SECTION
  2
OBJECTS
  0
DICTIONARY
  5
C
330
0
100
AcDbDictionary
281
     1
  3
ACAD_BACKGROUND
350
25858
  3
ACAD_CIP_PREVIOUS_PRODUCT_INFO
350
24E11
  3
ACAD_COLOR
350
E53D
  3
ACAD_DETAILVIEWSTYLE
350
298E8
  3
ACAD_GROUP
350
D
  3
ACAD_IMAGE_DICT
350
218BD
  3
ACAD_IMAGE_VARS
350
218BF
  3
ACAD_LAYOUT
350
1A
  3
ACAD_MATERIAL
350
E53C
  3
ACAD_MLEADERSTYLE
350
2451C
  3
ACAD_MLINESTYLE
350
17
  3
ACAD_PLOTSETTINGS
350
19
  3
ACAD_PLOTSTYLENAME
350
E
  3
ACAD_SCALELIST
350
244FA
  3
ACAD_SECTIONVIEWSTYLE
350
298E6
  3
ACAD_TABLESTYLE
350
E57A
  3
ACAD_VISUALSTYLE
350
241C1
  3
ACDB_RECOMPOSE_DATA
350
299D0
  3
AcDbVariableDictionary
350
30
  3
AcmDictionary
350
43
  3
AMG
350
3F
  3
AMGSNAPSETTINGS
350
5B
  3
APPDATA
350
299C4
  3
FX_DICT_DIMENSION_PALETTE
350
299C6
  0
DICTIONARY
  5
2427B
330
8
100
AcDbDictionary
280
     1
281
     1
  0
SUN
  5
299C5
330
241BC
100
AcDbSun
 90
        1
290
     0
 63
     7
421
 16777215
 40
1.0
291
     1
 91
  2455826
 92
 54000000
292
     0
 70
     2
 71
   256
280
     1
  0
DICTIONARY
  5
20B7A
330
2
100
AcDbDictionary
280
     1
281
     1
  3
ACAD_LAYERSTATES
360
25449
  3
AMLAYER_GROUPCOLORS
360
20B7B
  0
DICTIONARY
  5
245A6
330
10
100
AcDbDictionary
280
     1
281
     1
  3
ADSK_XREC_LAYER_RECONCILED
360
245A7
  0
DICTIONARY
  5
245AE
330
ED3
100
AcDbDictionary
280
     1
281
     1
  3
ADSK_XREC_LAYER_RECONCILED
360
245AF
  0
DICTIONARY
  5
245B2
330
F8C
100
AcDbDictionary
280
     1
281
     1
  3
ADSK_XREC_LAYER_RECONCILED
360
245B3
  0
DICTIONARY
  5
245F4
330
1927E
100
AcDbDictionary
280
     1
281
     1
  3
ADSK_XREC_LAYER_RECONCILED
360
245F5
  0
DICTIONARY
  5
55
330
1F
100
AcDbDictionary
280
     1
281
     1
  3
ACAD_SORTENTS
360
E623
  3
DIM_BOUNDING_BOXES_V1
360
299C8
  0
DICTIONARY
  5
25858
102
{ACAD_REACTORS
330
C
102
}
330
C
100
AcDbDictionary
281
     1
  0
XRECORD
  5
24E11
102
{ACAD_REACTORS
330
C
102
}
330
C
100
AcDbXrecord
280
     1
300
AMECH_PP
300
2013
300
85962PDSP_2013_0F
  0
DICTIONARY
  5
E53D
102
{ACAD_REACTORS
330
C
102
}
330
C
100
AcDbDictionary
281
     1
  0
DICTIONARY
  5
298E8
102
{ACAD_REACTORS
330
C
102
}
330
C
100
AcDbDictionary
281
     1
  3
Metric50
350
298E9
  0
DICTIONARY
  5
D
102
{ACAD_REACTORS
330
C
102
}
330
C
100
AcDbDictionary
281
     1
  0
DICTIONARY
  5
218BD
102
{ACAD_REACTORS
330
C
102
}
330
C
100
AcDbDictionary
281
     1
  0
RASTERVARIABLES
  5
218BF
102
{ACAD_REACTORS
330
C
102
}
330
C
100
AcDbRasterVariables
 90
        0
 70
     1
 71
     1
 72
     1
  0
DICTIONARY
  5
1A
102
{ACAD_REACTORS
330
C
102
}
330
C
100
AcDbDictionary
281
     1
  3
Layout1
350
1E
  3
Layout2
350
26
  3
Model
350
22
  0
DICTIONARY
  5
E53C
102
{ACAD_REACTORS
330
C
102
}
330
C
100
AcDbDictionary
281
     1
  3
ByBlock
350
241BF
  3
ByLayer
350
241BE
  3
Global
350
241C0
  0
DICTIONARY
  5
2451C
102
{ACAD_REACTORS
330
C
102
}
330
C
100
AcDbDictionary
281
     1
  3
Standard
350
2451D
  0
DICTIONARY
  5
17
102
{ACAD_REACTORS
330
C
102
}
330
C
100
AcDbDictionary
281
     1
  3
Standard
350
18
  0
DICTIONARY
  5
19
102
{ACAD_REACTORS
330
C
102
}
330
C
100
AcDbDictionary
281
     1
  0
ACDBDICTIONARYWDFLT
  5
E
102
{ACAD_REACTORS
330
C
102
}
330
C
100
AcDbDictionary
281
     1
  3
Normal
350
F
100
AcDbDictionaryWithDefault
340
F
  0
DICTIONARY
  5
244FA
102
{ACAD_REACTORS
330
C
102
}
330
C
100
AcDbDictionary
281
     1
  3
A0
350
244FB
  3
A1
350
244FC
  3
A2
350
244FD
  3
A3
350
244FE
  3
A4
350
244FF
  3
A5
350
24500
  3
A6
350
24501
  3
A7
350
24502
  3
A8
350
24503
  3
A9
350
24504
  3
B0
350
24505
  3
B1
350
24506
  3
B2
350
24507
  3
B3
350
24508
  3
B4
350
24509
  3
B5
350
2450A
  3
B6
350
2450B
  3
B7
350
2450C
  3
B8
350
2450D
  3
B9
350
2450E
  3
C0
350
2450F
  3
C1
350
24510
  3
C2
350
24511
  3
C3
350
24512
  3
C4
350
24513
  3
C5
350
24514
  3
C6
350
24515
  3
C7
350
24516
  3
C8
350
24517
  3
C9
350
24518
  3
D0
350
24519
  3
D1
350
2451A
  3
D2
350
2451B
  0
DICTIONARY
  5
298E6
102
{ACAD_REACTORS
330
C
102
}
330
C
100
AcDbDictionary
281
     1
  3
Metric50
350
298E7
  0
DICTIONARY
  5
E57A
102
{ACAD_REACTORS
330
C
102
}
330
C
100
AcDbDictionary
281
     1
  3
Standard
350
E57B
  0
DICTIONARY
  5
241C1
102
{ACAD_REACTORS
330
C
102
}
330
C
100
AcDbDictionary
281
     1
  3
2dWireframe
350
241C7
  3
3D Hidden
350
241C9
  3
3dWireframe
350
241C8
  3
Basic
350
241C6
  3
Brighten
350
241CD
  3
ColorChange
350
241D1
  3
Conceptual
350
241CA
  3
Dim
350
241CC
  3
EdgeColorOff
350
24E01
  3
Facepattern
350
241D0
  3
Flat
350
241C2
  3
FlatWithEdges
350
241C3
  3
Gouraud
350
241C4
  3
GouraudWithEdges
350
241C5
  3
Hidden
350
24DF9
  3
JitterOff
350
24DFF
  3
Linepattern
350
241CF
  3
OverhangOff
350
24E00
  3
Realistic
350
241CB
  3
Shaded
350
24DFE
  3
Shaded with edges
350
24DFD
  3
Shades of Gray
350
24DFA
  3
Sketchy
350
24DFB
  3
Thicken
350
241CE
  3
Wireframe
350
24DF8
  3
X-Ray
350
24DFC
  0
XRECORD
  5
299D0
102
{ACAD_REACTORS
330
C
102
}
330
C
100
AcDbXrecord
280
     1
 90
        1
330
E57B
  0
DICTIONARY
  5
30
102
{ACAD_REACTORS
330
C
102
}
330
C
100
AcDbDictionary
281
     1
  3
CANNOSCALE
350
24DD1
  3
CMLEADERSTYLE
350
24DCF
  3
CTABLESTYLE
350
E5ED
  3
CVIEWDETAILSTYLE
350
2996B
  3
CVIEWSECTIONSTYLE
350
2996C
  3
INDEXCTL
350
31
  3
LAYEREVAL
350
2613C
  3
LAYERNOTIFY
350
2613D
  3
LIGHTINGUNITS
350
24DD2
  3
MSLTSCALE
350
24DD0
  3
SOLIDHIST
350
2996D
  3
XCLIPFRAME
350
299C9
  0
DICTIONARY
  5
43
102
{ACAD_REACTORS
330
C
102
}
330
C
100
AcDbDictionary
281
     1
  3
AcmStdDictionary
350
307C
  3
AMDTSECTSYM_ARROWCOLOR
350
E5D6
  0
DICTIONARY
  5
3F
102
{ACAD_REACTORS
330
C
102
}
330
C
100
AcDbDictionary
281
     1
  0
DICTIONARY
  5
5B
102
{ACAD_REACTORS
330
C
102
}
330
C
100
AcDbDictionary
281
     1
  0
DICTIONARY
  5
299C4
102
{ACAD_REACTORS
330
C
102
}
330
C
100
AcDbDictionary
281
     1
  0
DICTIONARY
  5
299C6
102
{ACAD_REACTORS
330
C
102
}
330
C
100
AcDbDictionary
281
     1
1001
FX_DIMP_FAV_VERSION
1071
        1
  0
DICTIONARY
  5
25449
102
{ACAD_REACTORS
330
20B7A
102
}
330
20B7A
100
AcDbDictionary
281
     1
  0
DICTIONARY
  5
20B7B
102
{ACAD_REACTORS
330
20B7A
102
}
330
20B7A
100
AcDbDictionary
280
     1
281
     1
  0
XRECORD
  5
245A7
102
{ACAD_REACTORS
330
245A6
102
}
330
245A6
100
AcDbXrecord
280
     1
290
     1
  0
XRECORD
  5
245AF
102
{ACAD_REACTORS
330
245AE
102
}
330
245AE
100
AcDbXrecord
280
     1
290
     1
  0
XRECORD
  5
245B3
102
{ACAD_REACTORS
330
245B2
102
}
330
245B2
100
AcDbXrecord
280
     1
290
     1
  0
XRECORD
  5
245F5
102
{ACAD_REACTORS
330
245F4
102
}
330
245F4
100
AcDbXrecord
280
     1
290
     1
  0
SORTENTSTABLE
  5
E623
102
{ACAD_REACTORS
330
55
102
}
330
55
100
AcDbSortentsTable
330
1F
331
3089
  5
3089
331
308A
  5
308A
331
52F1
  5
52F1
331
52F2
  5
52F2
331
52F3
  5
52F3
331
52F4
  5
52F4
331
52F5
  5
52F5
331
52F6
  5
52F6
331
535D
  5
535D
331
535E
  5
535E
331
535F
  5
535F
331
5360
  5
5360
331
5361
  5
5361
331
54EC
  5
54EC
331
54ED
  5
54ED
331
54EE
  5
54EE
331
54EF
  5
54EF
331
54F0
  5
54F0
331
56DF
  5
56DF
331
56E0
  5
56E0
331
56E1
  5
56E1
331
56E2
  5
56E2
331
56E3
  5
56E3
331
56E4
  5
56E4
331
5914
  5
5914
331
5915
  5
5915
331
5916
  5
5916
331
5917
  5
5917
331
5918
  5
5918
331
5E52
  5
5E52
331
5E53
  5
5E53
331
5E54
  5
5E54
331
5E55
  5
5E55
331
5E56
  5
5E56
331
5E57
  5
5E57
331
1D442
  5
1D443
331
1D443
  5
1D444
331
1D444
  5
1D445
331
1D445
  5
1D446
331
1D446
  5
1D447
331
1D447
  5
1D448
331
1D448
  5
1D449
331
1D449
  5
1D44A
331
1D44A
  5
1D44B
331
1D44B
  5
1D44C
331
1D44C
  5
1D44D
331
1D44D
  5
1D44E
331
1D44E
  5
1D44F
331
1D44F
  5
1D450
331
1D450
  5
1D451
331
1D451
  5
1D452
331
1D452
  5
1D453
331
1D453
  5
1D454
331
1D454
  5
1D455
331
1D455
  5
1D456
331
1D456
  5
1D457
331
1D457
  5
1D458
331
1D458
  5
1D459
331
1D459
  5
1D45A
331
1D45A
  5
1D45B
331
1D45B
  5
1D45C
331
1D45C
  5
1D45D
331
1D45D
  5
1D45E
331
1D45E
  5
1D45F
331
1D45F
  5
1D460
331
1D460
  5
1D461
331
1D461
  5
1D462
331
1D462
  5
1D463
331
1D463
  5
1D464
331
1D464
  5
1DEF0
331
0
  5
282D4
331
0
  5
282D5
331
0
  5
282D6
331
0
  5
282D7
331
0
  5
282D8
331
0
  5
282D9
331
0
  5
282DA
331
0
  5
282DB
331
0
  5
282DC
331
0
  5
282DD
331
0
  5
282DE
331
0
  5
282DF
331
0
  5
282E0
331
0
  5
282E1
331
0
  5
282E2
331
0
  5
282E3
331
0
  5
282E4
331
0
  5
282E5
331
0
  5
282E6
331
0
  5
282E7
331
0
  5
282E8
331
0
  5
282E9
331
0
  5
282EA
331
0
  5
282EB
331
0
  5
282EC
331
0
  5
282ED
331
0
  5
282EE
331
0
  5
282EF
331
0
  5
282F0
331
0
  5
282F1
331
0
  5
282F2
331
0
  5
282F3
331
0
  5
282F4
331
0
  5
282F5
331
0
  5
282F6
331
0
  5
282F7
331
0
  5
282F8
331
0
  5
282F9
331
0
  5
282FA
331
0
  5
282FB
331
0
  5
282FC
331
0
  5
282FD
331
0
  5
282FE
331
0
  5
282FF
331
0
  5
28300
331
0
  5
28301
331
0
  5
28302
331
0
  5
28303
331
0
  5
28304
331
0
  5
28305
331
28306
  5
28306
331
28307
  5
28307
331
28308
  5
28308
331
28309
  5
28309
331
2830A
  5
2830A
331
2830B
  5
2830B
331
2830C
  5
2830C
331
2830D
  5
2830D
331
2830E
  5
2830E
331
2830F
  5
2830F
331
28310
  5
28310
331
28311
  5
28311
331
0
  5
28312
331
0
  5
28313
331
0
  5
28314
331
0
  5
28315
331
0
  5
28316
331
0
  5
28317
331
0
  5
28318
331
0
  5
28319
331
0
  5
2831A
331
0
  5
2831B
331
2831C
  5
2831C
331
2831D
  5
2831D
331
2831E
  5
2831E
331
2831F
  5
2831F
331
28320
  5
28320
331
28321
  5
28321
331
28322
  5
28322
331
28323
  5
28323
331
28324
  5
28324
331
28325
  5
28325
331
28326
  5
28326
331
28327
  5
28327
331
28328
  5
28328
331
28329
  5
28329
331
2832A
  5
2832A
331
2832B
  5
2832B
331
2832C
  5
2832C
331
2832D
  5
2832D
331
2832E
  5
2832E
331
2832F
  5
2832F
331
28330
  5
28330
331
28331
  5
28331
331
28332
  5
28332
331
28333
  5
28333
331
28334
  5
28334
331
28335
  5
28335
331
28336
  5
28336
331
28337
  5
28337
331
28338
  5
28338
331
28339
  5
28339
331
2833A
  5
2833A
331
2833B
  5
2833B
331
2833C
  5
2833C
331
2833D
  5
2833D
331
2833E
  5
2833E
331
2833F
  5
2833F
331
28340
  5
28340
331
28341
  5
28341
331
28342
  5
28342
331
28343
  5
28343
331
0
  5
28344
331
0
  5
28345
331
0
  5
28346
331
0
  5
28347
331
0
  5
28348
331
0
  5
28349
331
0
  5
2834A
331
0
  5
2834B
331
0
  5
2834C
331
0
  5
2834D
331
0
  5
2834E
331
0
  5
2834F
331
0
  5
28350
331
0
  5
28351
331
0
  5
28352
331
0
  5
28353
331
0
  5
28354
331
0
  5
28355
331
0
  5
28356
331
0
  5
28357
331
0
  5
28358
331
0
  5
28359
331
0
  5
2835A
331
0
  5
2835B
331
0
  5
2835C
331
0
  5
2835D
331
0
  5
2835E
331
0
  5
2835F
331
0
  5
28360
331
0
  5
28361
331
0
  5
28362
331
0
  5
28363
331
0
  5
28364
331
0
  5
28365
331
0
  5
28366
331
0
  5
28367
331
0
  5
28368
331
0
  5
28369
331
0
  5
2836A
331
0
  5
2836B
331
0
  5
2836C
331
0
  5
2836D
331
0
  5
2836E
331
0
  5
2836F
331
0
  5
28370
331
0
  5
28371
331
0
  5
28372
331
0
  5
28373
331
0
  5
28374
331
0
  5
28375
331
0
  5
28376
331
0
  5
28377
331
0
  5
28378
331
0
  5
28379
331
0
  5
2837A
331
0
  5
2837B
331
0
  5
2837C
331
0
  5
2837D
331
0
  5
2837E
331
0
  5
2837F
331
0
  5
28380
331
0
  5
28381
331
0
  5
28382
331
0
  5
28383
331
0
  5
28384
331
0
  5
28385
331
0
  5
28386
331
0
  5
28387
331
0
  5
28388
331
0
  5
28389
331
0
  5
2838A
331
0
  5
2838B
331
0
  5
2838C
331
0
  5
2838D
331
0
  5
2838E
331
0
  5
2838F
331
0
  5
28390
331
0
  5
28391
331
0
  5
28392
331
0
  5
28393
331
0
  5
28394
331
0
  5
28395
331
0
  5
28396
331
0
  5
28397
331
0
  5
28398
331
0
  5
28399
331
0
  5
2839A
331
0
  5
2839B
331
0
  5
2839C
331
0
  5
2839D
331
0
  5
2839E
331
0
  5
2839F
331
0
  5
283A0
331
0
  5
283A1
331
0
  5
283A2
331
0
  5
283A3
331
0
  5
283A4
331
0
  5
283A5
331
0
  5
283A6
331
0
  5
283A7
331
0
  5
283A8
331
0
  5
283A9
331
0
  5
283AA
331
0
  5
283AB
331
0
  5
283AC
331
0
  5
283AD
331
0
  5
283AE
331
0
  5
283AF
331
0
  5
283B0
331
0
  5
283B1
331
0
  5
283B2
331
0
  5
283B3
331
0
  5
283B4
331
0
  5
283B5
331
0
  5
283B6
331
0
  5
283B7
331
0
  5
283B8
331
0
  5
283B9
331
0
  5
283BA
331
0
  5
283BB
331
0
  5
283BC
331
0
  5
283BD
331
0
  5
283BE
331
0
  5
283BF
331
0
  5
283C0
331
0
  5
283C1
331
0
  5
283C2
331
0
  5
283C3
331
0
  5
283C4
331
0
  5
283C5
331
0
  5
283C6
331
0
  5
283C7
331
0
  5
283C8
331
0
  5
283C9
331
0
  5
283CA
331
0
  5
283CB
331
0
  5
283CC
331
0
  5
283CD
331
0
  5
283CE
331
0
  5
283CF
331
0
  5
283D0
331
0
  5
283D1
331
0
  5
283D2
331
0
  5
283D3
331
0
  5
283D4
331
0
  5
283D5
331
0
  5
283D6
331
0
  5
283D7
331
0
  5
283D8
331
0
  5
283D9
331
0
  5
283DA
331
0
  5
283DB
331
0
  5
283DC
331
0
  5
283DD
331
0
  5
283DE
331
0
  5
283DF
331
0
  5
283E0
331
0
  5
283E1
331
0
  5
283E2
331
0
  5
283E3
331
0
  5
2890C
331
0
  5
2890D
331
0
  5
2890E
331
0
  5
28925
331
0
  5
28926
331
0
  5
28927
331
28928
  5
28928
331
28929
  5
28929
331
0
  5
2892A
331
0
  5
2892B
331
0
  5
2892C
331
0
  5
2892D
331
0
  5
2892E
331
0
  5
2892F
331
0
  5
289C1
331
289C2
  5
289C2
331
0
  5
289C3
331
0
  5
289C4
331
0
  5
289C5
331
0
  5
289C7
331
289F8
  5
289F8
331
0
  5
28A29
331
0
  5
28A5A
331
0
  5
28A8B
331
0
  5
28ABC
331
0
  5
28AE6
331
28B04
  5
28B04
331
0
  5
28B22
331
0
  5
28B40
331
0
  5
28BCF
331
0
  5
28C1B
331
0
  5
28CB3
331
0
  5
28CE3
331
0
  5
290A6
331
0
  5
290A7
  0
DICTIONARY
  5
299C8
102
{ACAD_REACTORS
330
55
102
}
330
55
100
AcDbDictionary
281
     1
  0
ACDBDETAILVIEWSTYLE
  5
298E9
102
{ACAD_REACTORS
330
298E8
102
}
330
298E8
100
AcDbModelDocViewStyle
 70
     0
  3
Metric50
290
     0
300
Metric50
 90
        0
100
AcDbDetailViewStyle
 70
     0
 71
     0
 90
        3
 71
     1
340
11
 62
   256
 40
5.0
340
0
 62
   256
 40
5.0
300

 40
0.0
280
     1
 71
     2
340
16
 90
       25
 62
   256
 71
     3
340
11
 62
   256
 40
5.0
 90
        0
 40
15.0
 90
        1
300
%<\AcVar ViewDetailId>% (%<\AcVar ViewScale \f "%sn">%)
 71
     4
340
16
 90
       25
 62
   256
340
16
 90
       25
 62
   256
280
     0
  0
LAYOUT
  5
1E
102
{ACAD_REACTORS
330
1A
102
}
330
1A
100
AcDbPlotSettings
  1

  2
\\SRVDYNAIR\HP LaserJet 4V
  4

  6

 40
0.0
 41
0.0
 42
0.0
 43
0.0
 44
0.0
 45
0.0
 46
0.0
 47
0.0
 48
0.0
 49
0.0
140
0.0
141
0.0
142
1.0
143
1.0
 70
   688
 72
     0
 73
     0
 74
     5
  7
monochrome.ctb
 75
    16
 76
     0
 77
     2
 78
   300
147
1.0
148
0.0
149
0.0
100
AcDbLayout
  1
Layout1
 70
     1
 71
     1
 10
0.0
 20
0.0
 11
420.0
 21
297.0
 12
0.0
 22
0.0
 32
0.0
 14
1.000000000000000E+20
 24
1.000000000000000E+20
 34
1.000000000000000E+20
 15
-1.000000000000000E+20
 25
-1.000000000000000E+20
 35
-1.000000000000000E+20
146
0.0
 13
0.0
 23
0.0
 33
0.0
 16
1.0
 26
0.0
 36
0.0
 17
0.0
 27
1.0
 37
0.0
 76
     0
330
1B
  0
LAYOUT
  5
26
102
{ACAD_REACTORS
330
1A
102
}
330
1A
100
AcDbPlotSettings
  1

  2
\\SRVDYNAIR\HP LaserJet 4V
  4

  6

 40
0.0
 41
0.0
 42
0.0
 43
0.0
 44
0.0
 45
0.0
 46
0.0
 47
0.0
 48
0.0
 49
0.0
140
0.0
141
0.0
142
1.0
143
1.0
 70
   688
 72
     0
 73
     0
 74
     5
  7
monochrome.ctb
 75
    16
 76
     0
 77
     2
 78
   300
147
1.0
148
0.0
149
0.0
100
AcDbLayout
  1
Layout2
 70
     1
 71
     2
 10
0.0
 20
0.0
 11
12.0
 21
9.0
 12
0.0
 22
0.0
 32
0.0
 14
0.0
 24
0.0
 34
0.0
 15
0.0
 25
0.0
 35
0.0
146
0.0
 13
0.0
 23
0.0
 33
0.0
 16
1.0
 26
0.0
 36
0.0
 17
0.0
 27
1.0
 37
0.0
 76
     0
330
23
  0
LAYOUT
  5
22
102
{ACAD_REACTORS
330
1A
102
}
330
1A
100
AcDbPlotSettings
  1

  2
\\SRVDYNAIR\HP LaserJet 4V
  4
A3
  6

 40
7.143749713897705
 41
5.873747825622559
 42
7.143768310546875
 43
5.873748779296875
 44
296.9259948730469
 45
419.9466552734375
 46
0.0
 47
0.0
 48
-1735.940869217346
 49
-5022.488565694854
140
364.9892747297199
141
-3424.000808072564
142
1.0
143
5.655591465979111
 70
 11952
 72
     1
 73
     1
 74
     4
  7
monochrome.ctb
 75
     0
 76
     0
 77
     2
 78
   300
147
0.1768161660925198
148
1735.940869217346
149
5022.488565694854
100
AcDbLayout
  1
Model
 70
     1
 71
     0
 10
0.0
 20
0.0
 11
12.0
 21
9.0
 12
0.0
 22
0.0
 32
0.0
 14
228.2305031506218
 24
416.1032239381823
 34
0.0
 15
439.5255832119547
 25
651.0816319304961
 35
0.0
146
0.0
 13
0.0
 23
0.0
 33
0.0
 16
1.0
 26
0.0
 36
0.0
 17
0.0
 27
1.0
 37
0.0
 76
     0
330
1F
331
241BC
  0
MATERIAL
  5
241BF
102
{ACAD_REACTORS
330
E53C
102
}
330
E53C
100
AcDbMaterial
  1
ByBlock
 72
     1
 94
       63
  0
MATERIAL
  5
241BE
102
{ACAD_REACTORS
330
E53C
102
}
330
E53C
100
AcDbMaterial
  1
ByLayer
 72
     1
 94
       63
  0
MATERIAL
  5
241C0
102
{ACAD_REACTORS
330
E53C
102
}
330
E53C
100
AcDbMaterial
  1
Global
 72
     1
 94
       63
  0
MLEADERSTYLE
  5
2451D
102
{ACAD_REACTORS
330
2451C
102
}
330
2451C
100
AcDbMLeaderStyle
179
     2
170
     2
171
     1
172
     0
 90
        2
 40
0.0
 41
0.0
173
     1
 91
-1056964608
340
14
 92
       -2
290
     1
 42
2.0
291
     1
 43
0.36
  3
Standard
341
0
 44
4.0
300

342
11
174
     1
178
     6
175
     1
176
     0
 93
-1056964608
 45
4.0
292
     0
297
     0
 46
4.0
343
0
 94
-1056964608
 47
1.0
 49
1.0
140
1.0
293
     1
141
0.0
294
     1
177
     0
142
1.0
295
     0
296
     0
143
0.125
271
     0
272
     9
273
     9
298
     0
  0
MLINESTYLE
  5
18
102
{ACAD_REACTORS
330
17
102
}
330
17
100
AcDbMlineStyle
  2
STANDARD
 70
     0
  3

 62
   256
 51
90.0
 52
90.0
 71
     2
 49
0.5
 62
   256
  6
BYLAYER
 49
-0.5
 62
   256
  6
BYLAYER
  0
ACDBPLACEHOLDER
  5
F
102
{ACAD_REACTORS
330
E
102
}
330
E
  0
SCALE
  5
244FB
102
{ACAD_REACTORS
330
244FA
102
}
330
244FA
100
AcDbScale
 70
     0
300
1:1
140
1.0
141
1.0
290
     1
  0
SCALE
  5
244FC
102
{ACAD_REACTORS
330
244FA
102
}
330
244FA
100
AcDbScale
 70
     0
300
1:2
140
1.0
141
2.0
290
     0
  0
SCALE
  5
244FD
102
{ACAD_REACTORS
330
244FA
102
}
330
244FA
100
AcDbScale
 70
     0
300
1:4
140
1.0
141
4.0
290
     0
  0
SCALE
  5
244FE
102
{ACAD_REACTORS
330
244FA
102
}
330
244FA
100
AcDbScale
 70
     0
300
1:5
140
1.0
141
5.0
290
     0
  0
SCALE
  5
244FF
102
{ACAD_REACTORS
330
244FA
102
}
330
244FA
100
AcDbScale
 70
     0
300
1:8
140
1.0
141
8.0
290
     0
  0
SCALE
  5
24500
102
{ACAD_REACTORS
330
244FA
102
}
330
244FA
100
AcDbScale
 70
     0
300
1:10
140
1.0
141
10.0
290
     0
  0
SCALE
  5
24501
102
{ACAD_REACTORS
330
244FA
102
}
330
244FA
100
AcDbScale
 70
     0
300
1:16
140
1.0
141
16.0
290
     0
  0
SCALE
  5
24502
102
{ACAD_REACTORS
330
244FA
102
}
330
244FA
100
AcDbScale
 70
     0
300
1:20
140
1.0
141
20.0
290
     0
  0
SCALE
  5
24503
102
{ACAD_REACTORS
330
244FA
102
}
330
244FA
100
AcDbScale
 70
     0
300
1:30
140
1.0
141
30.0
290
     0
  0
SCALE
  5
24504
102
{ACAD_REACTORS
330
244FA
102
}
330
244FA
100
AcDbScale
 70
     0
300
1:40
140
1.0
141
40.0
290
     0
  0
SCALE
  5
24505
102
{ACAD_REACTORS
330
244FA
102
}
330
244FA
100
AcDbScale
 70
     0
300
1:50
140
1.0
141
50.0
290
     0
  0
SCALE
  5
24506
102
{ACAD_REACTORS
330
244FA
102
}
330
244FA
100
AcDbScale
 70
     0
300
1:100
140
1.0
141
100.0
290
     0
  0
SCALE
  5
24507
102
{ACAD_REACTORS
330
244FA
102
}
330
244FA
100
AcDbScale
 70
     0
300
2:1
140
2.0
141
1.0
290
     0
  0
SCALE
  5
24508
102
{ACAD_REACTORS
330
244FA
102
}
330
244FA
100
AcDbScale
 70
     0
300
4:1
140
4.0
141
1.0
290
     0
  0
SCALE
  5
24509
102
{ACAD_REACTORS
330
244FA
102
}
330
244FA
100
AcDbScale
 70
     0
300
8:1
140
8.0
141
1.0
290
     0
  0
SCALE
  5
2450A
102
{ACAD_REACTORS
330
244FA
102
}
330
244FA
100
AcDbScale
 70
     0
300
10:1
140
10.0
141
1.0
290
     0
  0
SCALE
  5
2450B
102
{ACAD_REACTORS
330
244FA
102
}
330
244FA
100
AcDbScale
 70
     0
300
100:1
140
100.0
141
1.0
290
     0
  0
SCALE
  5
2450C
102
{ACAD_REACTORS
330
244FA
102
}
330
244FA
100
AcDbScale
 70
     0
300
1/128" = 1'-0"
140
0.0078125
141
12.0
290
     0
  0
SCALE
  5
2450D
102
{ACAD_REACTORS
330
244FA
102
}
330
244FA
100
AcDbScale
 70
     0
300
1/64" = 1'-0"
140
0.015625
141
12.0
290
     0
  0
SCALE
  5
2450E
102
{ACAD_REACTORS
330
244FA
102
}
330
244FA
100
AcDbScale
 70
     0
300
1/32" = 1'-0"
140
0.03125
141
12.0
290
     0
  0
SCALE
  5
2450F
102
{ACAD_REACTORS
330
244FA
102
}
330
244FA
100
AcDbScale
 70
     0
300
1/16" = 1'-0"
140
0.0625
141
12.0
290
     0
  0
SCALE
  5
24510
102
{ACAD_REACTORS
330
244FA
102
}
330
244FA
100
AcDbScale
 70
     0
300
3/32" = 1'-0"
140
0.09375
141
12.0
290
     0
  0
SCALE
  5
24511
102
{ACAD_REACTORS
330
244FA
102
}
330
244FA
100
AcDbScale
 70
     0
300
1/8" = 1'-0"
140
0.125
141
12.0
290
     0
  0
SCALE
  5
24512
102
{ACAD_REACTORS
330
244FA
102
}
330
244FA
100
AcDbScale
 70
     0
300
3/16" = 1'-0"
140
0.1875
141
12.0
290
     0
  0
SCALE
  5
24513
102
{ACAD_REACTORS
330
244FA
102
}
330
244FA
100
AcDbScale
 70
     0
300
1/4" = 1'-0"
140
0.25
141
12.0
290
     0
  0
SCALE
  5
24514
102
{ACAD_REACTORS
330
244FA
102
}
330
244FA
100
AcDbScale
 70
     0
300
3/8" = 1'-0"
140
0.375
141
12.0
290
     0
  0
SCALE
  5
24515
102
{ACAD_REACTORS
330
244FA
102
}
330
244FA
100
AcDbScale
 70
     0
300
1/2" = 1'-0"
140
0.5
141
12.0
290
     0
  0
SCALE
  5
24516
102
{ACAD_REACTORS
330
244FA
102
}
330
244FA
100
AcDbScale
 70
     0
300
3/4" = 1'-0"
140
0.75
141
12.0
290
     0
  0
SCALE
  5
24517
102
{ACAD_REACTORS
330
244FA
102
}
330
244FA
100
AcDbScale
 70
     0
300
1" = 1'-0"
140
1.0
141
12.0
290
     0
  0
SCALE
  5
24518
102
{ACAD_REACTORS
330
244FA
102
}
330
244FA
100
AcDbScale
 70
     0
300
1-1/2" = 1'-0"
140
1.5
141
12.0
290
     0
  0
SCALE
  5
24519
102
{ACAD_REACTORS
330
244FA
102
}
330
244FA
100
AcDbScale
 70
     0
300
3" = 1'-0"
140
3.0
141
12.0
290
     0
  0
SCALE
  5
2451A
102
{ACAD_REACTORS
330
244FA
102
}
330
244FA
100
AcDbScale
 70
     0
300
6" = 1'-0"
140
6.0
141
12.0
290
     0
  0
SCALE
  5
2451B
102
{ACAD_REACTORS
330
244FA
102
}
330
244FA
100
AcDbScale
 70
     0
300
1'-0" = 1'-0"
140
12.0
141
12.0
290
     0
  0
ACDBSECTIONVIEWSTYLE
  5
298E7
102
{ACAD_REACTORS
330
298E6
102
}
330
298E6
100
AcDbModelDocViewStyle
 70
     0
  3
Metric50
290
     0
300
Metric50
 90
        0
100
AcDbSectionViewStyle
 70
     0
 71
     0
 90
      102
 71
     1
340
11
 62
   256
 40
5.0
340
0
340
0
 62
   256
 40
5.0
300
I, O, Q, S, X, Z
 40
10.0
 90
        0
 40
2.5
 90
        0
 71
     2
340
16
 90
       25
 62
   256
340
16
 90
       50
 62
   256
 40
5.0
 40
2.5
 40
5.0
 71
     3
340
11
 62
   256
 40
5.0
 90
        0
 40
15.0
 90
        1
300
%<\AcVar ViewSectionStartId>%-%<\AcVar ViewSectionEndId>% (%<\AcVar ViewScale \f "%sn">%)
 71
     4
 62
   256
 62
   257
300
ANSI31
 40
1.0
 90
        0
290
     0
290
     0
 90
        6
 40
0.0
 40
1.570796326794897
 40
0.2617993877991494
 40
1.308996938995747
 40
-0.2617993877991494
 40
1.832595714594046
  0
TABLESTYLE
  5
E57B
102
{ACAD_REACTORS
330
E57A
102
}
102
{ACAD_XDICTIONARY
360
299CE
102
}
330
E57A
100
AcDbTableStyle
  3
Standard
 70
     0
 71
     0
 40
1.5
 41
1.5
280
     0
281
     0
  7
Standard
140
4.5
170
     2
 62
     0
 63
   257
283
     0
 90
        4
 91
        0
  1

274
    -2
284
     1
 64
     0
275
    -2
285
     1
 65
     0
276
    -2
286
     1
 66
     0
277
    -2
287
     1
 67
     0
278
    -2
288
     1
 68
     0
279
    -2
289
     1
 69
     0
  7
Standard
140
6.0
170
     5
 62
     0
 63
   257
283
     0
 90
        4
 91
        0
  1

274
    -2
284
     1
 64
     0
275
    -2
285
     1
 65
     0
276
    -2
286
     1
 66
     0
277
    -2
287
     1
 67
     0
278
    -2
288
     1
 68
     0
279
    -2
289
     1
 69
     0
  7
Standard
140
4.5
170
     5
 62
     0
 63
   257
283
     0
 90
        4
 91
        0
  1

274
    -2
284
     1
 64
     0
275
    -2
285
     1
 65
     0
276
    -2
286
     1
 66
     0
277
    -2
287
     1
 67
     0
278
    -2
288
     1
 68
     0
279
    -2
289
     1
 69
     0
  0
VISUALSTYLE
  5
241C7
102
{ACAD_REACTORS
330
241C1
102
}
330
241C1
100
AcDbVisualStyle
  2
2dWireframe
 70
     4
177
     3
291
     0
 70
    58
 90
        0
176
     1
 90
        2
176
     1
 90
        0
176
     1
 90
        0
176
     1
 40
-0.6
176
     1
 40
-30.0
176
     1
 62
     7
420
 16777215
176
     1
 90
        1
176
     1
 90
        4
176
     1
 62
     7
176
     1
 62
   257
176
     1
 90
        1
176
     1
 90
        1
176
     1
 40
1.0
176
     1
 90
        0
176
     1
 62
   257
176
     1
 40
1.0
176
     1
 90
        1
176
     1
 90
        6
176
     1
 90
        2
176
     1
 62
     7
176
     1
 90
        5
176
     1
 90
        0
176
     1
 90
        0
176
     1
290
     0
176
     1
 90
        1
176
     1
 40
0.0
176
     1
 90
        0
176
     1
290
     1
176
     1
290
     1
176
     1
290
     0
176
     1
290
     0
176
     1
290
     0
176
     1
290
     0
176
     1
290
     0
176
     1
290
     0
176
     1
290
     0
176
     1
 90
       50
176
     1
 40
0.0
176
     1
 40
1.0
176
     1
 90
        0
176
     1
 62
    18
420
        0
176
     1
 90
       50
176
     1
 90
        3
176
     1
 62
     5
420
      255
176
     1
290
     0
176
     1
 90
       50
176
     1
 90
       50
176
     1
 90
       50
176
     1
290
     0
176
     1
 90
       50
176
     1
 62
   256
176
     0
 40
1.0
176
     0
 90
        2
176
     1
  1
strokes_ogs.tif
176
     1
290
     0
176
     1
 40
1.0
176
     1
 40
1.0
176
     1
  0
VISUALSTYLE
  5
241C9
102
{ACAD_REACTORS
330
241C1
102
}
330
241C1
100
AcDbVisualStyle
  2
3D Hidden
 70
     6
177
     3
291
     0
 70
    58
 90
        1
176
     1
 90
        2
176
     1
 90
        2
176
     1
 90
        0
176
     1
 40
-0.6
176
     1
 40
-30.0
176
     1
 62
     7
420
 16777215
176
     1
 90
        2
176
     1
 90
        2
176
     1
 62
     7
176
     1
 62
   257
176
     1
 90
        2
176
     1
 90
        1
176
     1
 40
40.0
176
     1
 90
        0
176
     1
 62
   257
176
     1
 40
1.0
176
     1
 90
        1
176
     1
 90
        6
176
     1
 90
        2
176
     1
 62
     7
176
     1
 90
        3
176
     1
 90
        0
176
     1
 90
        0
176
     1
290
     0
176
     1
 90
        1
176
     1
 40
0.0
176
     1
 90
        0
176
     1
290
     0
176
     1
290
     1
176
     1
290
     1
176
     1
290
     0
176
     1
290
     0
176
     1
290
     0
176
     1
290
     0
176
     1
290
     0
176
     1
290
     0
176
     1
 90
       50
176
     1
 40
0.0
176
     1
 40
1.0
176
     1
 90
        0
176
     1
 62
    18
420
        0
176
     1
 90
       50
176
     1
 90
        3
176
     1
 62
     5
420
      255
176
     1
290
     0
176
     1
 90
       50
176
     1
 90
       50
176
     1
 90
       50
176
     1
290
     0
176
     1
 90
       50
176
     1
 62
   256
176
     0
 40
1.0
176
     0
 90
        2
176
     1
  1
strokes_ogs.tif
176
     1
290
     0
176
     1
 40
1.0
176
     1
 40
1.0
176
     1
  0
VISUALSTYLE
  5
241C8
102
{ACAD_REACTORS
330
241C1
102
}
330
241C1
100
AcDbVisualStyle
  2
3dWireframe
 70
     5
177
     3
291
     0
 70
    58
 90
        0
176
     1
 90
        2
176
     1
 90
        0
176
     1
 90
        0
176
     1
 40
-0.6
176
     1
 40
-30.0
176
     1
 62
     7
420
 16777215
176
     1
 90
        1
176
     1
 90
        4
176
     1
 62
     7
176
     1
 62
   257
176
     1
 90
        1
176
     1
 90
        1
176
     1
 40
1.0
176
     1
 90
        0
176
     1
 62
   257
176
     1
 40
1.0
176
     1
 90
        1
176
     1
 90
        6
176
     1
 90
        2
176
     1
 62
     7
176
     1
 90
        5
176
     1
 90
        0
176
     1
 90
        0
176
     1
290
     0
176
     1
 90
        1
176
     1
 40
0.0
176
     1
 90
        0
176
     1
290
     0
176
     1
290
     1
176
     1
290
     1
176
     1
290
     0
176
     1
290
     0
176
     1
290
     0
176
     1
290
     0
176
     1
290
     0
176
     1
290
     0
176
     1
 90
       50
176
     1
 40
0.0
176
     1
 40
1.0
176
     1
 90
        0
176
     1
 62
    18
420
        0
176
     1
 90
       50
176
     1
 90
        3
176
     1
 62
     5
420
      255
176
     1
290
     0
176
     1
 90
       50
176
     1
 90
       50
176
     1
 90
       50
176
     1
290
     0
176
     1
 90
       50
176
     1
 62
   256
176
     0
 40
1.0
176
     0
 90
        2
176
     1
  1
strokes_ogs.tif
176
     1
290
     0
176
     1
 40
1.0
176
     1
 40
1.0
176
     1
  0
VISUALSTYLE
  5
241C6
102
{ACAD_REACTORS
330
241C1
102
}
330
241C1
100
AcDbVisualStyle
  2
Basic
 70
     7
177
     3
291
     1
 70
    58
 90
        1
176
     1
 90
        0
176
     1
 90
        1
176
     1
 90
        0
176
     1
 40
-0.6
176
     1
 40
-30.0
176
     1
 62
     7
420
 16777215
176
     1
 90
        0
176
     1
 90
        4
176
     1
 62
     7
176
     1
 62
   257
176
     1
 90
        1
176
     1
 90
        1
176
     1
 40
1.0
176
     1
 90
        8
176
     1
 62
     7
176
     1
 40
1.0
176
     1
 90
        1
176
     1
 90
        6
176
     1
 90
        2
176
     1
 62
     7
176
     1
 90
        5
176
     1
 90
        0
176
     1
 90
        0
176
     1
290
     0
176
     1
 90
        1
176
     1
 40
0.0
176
     1
 90
        0
176
     1
290
     0
176
     1
290
     1
176
     1
290
     1
176
     1
290
     0
176
     1
290
     0
176
     1
290
     0
176
     1
290
     0
176
     1
290
     0
176
     1
290
     0
176
     1
 90
       50
176
     1
 40
0.0
176
     1
 40
1.0
176
     1
 90
        0
176
     1
 62
    18
420
        0
176
     1
 90
       50
176
     1
 90
        3
176
     1
 62
     5
420
      255
176
     1
290
     0
176
     1
 90
       50
176
     1
 90
       50
176
     1
 90
       50
176
     1
290
     0
176
     1
 90
       50
176
     1
 62
   256
176
     0
 40
1.0
176
     0
 90
        2
176
     1
  1
strokes_ogs.tif
176
     1
290
     0
176
     1
 40
1.0
176
     1
 40
1.0
176
     1
  0
VISUALSTYLE
  5
241CD
102
{ACAD_REACTORS
330
241C1
102
}
330
241C1
100
AcDbVisualStyle
  2
Brighten
 70
    12
177
     3
291
     1
 70
    58
 90
        2
176
     1
 90
        2
176
     1
 90
        0
176
     1
 90
        0
176
     1
 40
-0.6
176
     1
 40
-30.0
176
     1
 62
     7
420
 16777215
176
     1
 90
        1
176
     1
 90
        4
176
     1
 62
     7
176
     1
 62
   257
176
     1
 90
        1
176
     1
 90
        1
176
     1
 40
1.0
176
     1
 90
        8
176
     1
 62
     7
176
     1
 40
1.0
176
     1
 90
        1
176
     1
 90
        6
176
     1
 90
        2
176
     1
 62
     7
176
     1
 90
        5
176
     1
 90
        0
176
     1
 90
        0
176
     1
290
     0
176
     1
 90
        1
176
     1
 40
50.0
176
     1
 90
        0
176
     1
290
     0
176
     1
290
     1
176
     1
290
     1
176
     1
290
     0
176
     1
290
     0
176
     1
290
     0
176
     1
290
     0
176
     1
290
     0
176
     1
290
     0
176
     1
 90
       50
176
     1
 40
0.0
176
     1
 40
1.0
176
     1
 90
        0
176
     1
 62
    18
420
        0
176
     1
 90
       50
176
     1
 90
        3
176
     1
 62
     5
420
      255
176
     1
290
     0
176
     1
 90
       50
176
     1
 90
       50
176
     1
 90
       50
176
     1
290
     0
176
     1
 90
       50
176
     1
 62
   256
176
     0
 40
1.0
176
     0
 90
        2
176
     1
  1
strokes_ogs.tif
176
     1
290
     0
176
     1
 40
1.0
176
     1
 40
1.0
176
     1
  0
VISUALSTYLE
  5
241D1
102
{ACAD_REACTORS
330
241C1
102
}
330
241C1
100
AcDbVisualStyle
  2
ColorChange
 70
    16
177
     3
291
     1
 70
    58
 90
        2
176
     1
 90
        2
176
     1
 90
        3
176
     1
 90
        0
176
     1
 40
-0.6
176
     1
 40
-30.0
176
     1
 62
     8
420
  8421504
176
     1
 90
        1
176
     1
 90
        4
176
     1
 62
     7
176
     1
 62
   257
176
     1
 90
        1
176
     1
 90
        1
176
     1
 40
1.0
176
     1
 90
        8
176
     1
 62
     8
420
  8421504
176
     1
 40
1.0
176
     1
 90
        1
176
     1
 90
        6
176
     1
 90
        2
176
     1
 62
     7
176
     1
 90
        5
176
     1
 90
        0
176
     1
 90
        0
176
     1
290
     0
176
     1
 90
        1
176
     1
 40
0.0
176
     1
 90
        0
176
     1
290
     0
176
     1
290
     1
176
     1
290
     1
176
     1
290
     0
176
     1
290
     0
176
     1
290
     0
176
     1
290
     0
176
     1
290
     0
176
     1
290
     0
176
     1
 90
       50
176
     1
 40
0.0
176
     1
 40
1.0
176
     1
 90
        0
176
     1
 62
    18
420
        0
176
     1
 90
       50
176
     1
 90
        3
176
     1
 62
     5
420
      255
176
     1
290
     0
176
     1
 90
       50
176
     1
 90
       50
176
     1
 90
       50
176
     1
290
     0
176
     1
 90
       50
176
     1
 62
   256
176
     0
 40
1.0
176
     0
 90
        2
176
     1
  1
strokes_ogs.tif
176
     1
290
     0
176
     1
 40
1.0
176
     1
 40
1.0
176
     1
  0
VISUALSTYLE
  5
241CA
102
{ACAD_REACTORS
330
241C1
102
}
330
241C1
100
AcDbVisualStyle
  2
Conceptual
 70
     9
177
     3
291
     0
 70
    58
 90
        3
176
     1
 90
        2
176
     1
 90
        0
176
     1
 90
        0
176
     1
 40
-0.6
176
     1
 40
-30.0
176
     1
 62
     7
420
 16777215
176
     1
 90
        2
176
     1
 90
        2
176
     1
 62
     7
176
     1
 62
   257
176
     1
 90
        1
176
     1
 90
        1
176
     1
 40
40.0
176
     1
 90
        8
176
     1
 62
     7
176
     1
 40
1.0
176
     1
 90
        1
176
     1
 90
        6
176
     1
 90
        2
176
     1
 62
     7
176
     1
 90
        3
176
     1
 90
        0
176
     1
 90
        0
176
     1
290
     0
176
     1
 90
        1
176
     1
 40
0.0
176
     1
 90
        0
176
     1
290
     0
176
     1
290
     1
176
     1
290
     1
176
     1
290
     0
176
     1
290
     0
176
     1
290
     0
176
     1
290
     0
176
     1
290
     0
176
     1
290
     0
176
     1
 90
       50
176
     1
 40
0.0
176
     1
 40
1.0
176
     1
 90
        0
176
     1
 62
    18
420
        0
176
     1
 90
       50
176
     1
 90
        3
176
     1
 62
     5
420
      255
176
     1
290
     0
176
     1
 90
       50
176
     1
 90
       50
176
     1
 90
       50
176
     1
290
     0
176
     1
 90
       50
176
     1
 62
   256
176
     0
 40
1.0
176
     0
 90
        2
176
     1
  1
strokes_ogs.tif
176
     1
290
     0
176
     1
 40
1.0
176
     1
 40
1.0
176
     1
  0
VISUALSTYLE
  5
241CC
102
{ACAD_REACTORS
330
241C1
102
}
330
241C1
100
AcDbVisualStyle
  2
Dim
 70
    11
177
     3
291
     1
 70
    58
 90
        2
176
     1
 90
        2
176
     1
 90
        0
176
     1
 90
        0
176
     1
 40
-0.6
176
     1
 40
-30.0
176
     1
 62
     7
420
 16777215
176
     1
 90
        1
176
     1
 90
        4
176
     1
 62
     7
176
     1
 62
   257
176
     1
 90
        1
176
     1
 90
        1
176
     1
 40
1.0
176
     1
 90
        8
176
     1
 62
     7
176
     1
 40
1.0
176
     1
 90
        1
176
     1
 90
        6
176
     1
 90
        2
176
     1
 62
     7
176
     1
 90
        5
176
     1
 90
        0
176
     1
 90
        0
176
     1
290
     0
176
     1
 90
        1
176
     1
 40
-50.0
176
     1
 90
        0
176
     1
290
     0
176
     1
290
     1
176
     1
290
     1
176
     1
290
     0
176
     1
290
     0
176
     1
290
     0
176
     1
290
     0
176
     1
290
     0
176
     1
290
     0
176
     1
 90
       50
176
     1
 40
0.0
176
     1
 40
1.0
176
     1
 90
        0
176
     1
 62
    18
420
        0
176
     1
 90
       50
176
     1
 90
        3
176
     1
 62
     5
420
      255
176
     1
290
     0
176
     1
 90
       50
176
     1
 90
       50
176
     1
 90
       50
176
     1
290
     0
176
     1
 90
       50
176
     1
 62
   256
176
     0
 40
1.0
176
     0
 90
        2
176
     1
  1
strokes_ogs.tif
176
     1
290
     0
176
     1
 40
1.0
176
     1
 40
1.0
176
     1
  0
VISUALSTYLE
  5
24E01
102
{ACAD_REACTORS
330
241C1
102
}
330
241C1
100
AcDbVisualStyle
  2
EdgeColorOff
 70
    22
177
     3
291
     1
 70
    58
 90
        2
176
     0
 90
        2
176
     0
 90
        0
176
     0
 90
        0
176
     0
 40
-0.6
176
     0
 40
-30.0
176
     0
 62
     7
420
 16777215
176
     0
 90
        1
176
     0
 90
        4
176
     0
 62
     7
176
     0
 62
   257
176
     0
 90
        1
176
     0
 90
        1
176
     0
 40
1.0
176
     0
 90
        8
176
     2
 62
     7
176
     0
 40
1.0
176
     0
 90
        1
176
     0
 90
        6
176
     0
 90
        2
176
     0
 62
     7
176
     0
 90
        5
176
     0
 90
        0
176
     0
 90
        0
176
     0
290
     0
176
     0
 90
        1
176
     0
 40
0.0
176
     0
 90
        0
176
     0
290
     0
176
     1
290
     1
176
     1
290
     1
176
     1
290
     0
176
     1
290
     0
176
     1
290
     0
176
     1
290
     0
176
     1
290
     0
176
     1
290
     0
176
     1
 90
       50
176
     1
 40
0.0
176
     1
 40
1.0
176
     1
 90
        0
176
     1
 62
    18
420
        0
176
     1
 90
       50
176
     1
 90
        3
176
     1
 62
     5
420
      255
176
     1
290
     0
176
     1
 90
       50
176
     1
 90
       50
176
     1
 90
       50
176
     1
290
     0
176
     1
 90
       50
176
     1
 62
   256
176
     0
 40
1.0
176
     0
 90
        2
176
     1
  1
strokes_ogs.tif
176
     1
290
     0
176
     1
 40
1.0
176
     1
 40
1.0
176
     1
  0
VISUALSTYLE
  5
241D0
102
{ACAD_REACTORS
330
241C1
102
}
330
241C1
100
AcDbVisualStyle
  2
Facepattern
 70
    15
177
     3
291
     1
 70
    58
 90
        2
176
     1
 90
        2
176
     1
 90
        0
176
     1
 90
        0
176
     1
 40
-0.6
176
     1
 40
-30.0
176
     1
 62
     7
420
 16777215
176
     1
 90
        1
176
     1
 90
        4
176
     1
 62
     7
176
     1
 62
   257
176
     1
 90
        1
176
     1
 90
        1
176
     1
 40
1.0
176
     1
 90
        8
176
     1
 62
     7
176
     1
 40
1.0
176
     1
 90
        1
176
     1
 90
        6
176
     1
 90
        2
176
     1
 62
     7
176
     1
 90
        5
176
     1
 90
        0
176
     1
 90
        0
176
     1
290
     0
176
     1
 90
        1
176
     1
 40
0.0
176
     1
 90
        0
176
     1
290
     0
176
     1
290
     1
176
     1
290
     1
176
     1
290
     0
176
     1
290
     0
176
     1
290
     0
176
     1
290
     0
176
     1
290
     0
176
     1
290
     0
176
     1
 90
       50
176
     1
 40
0.0
176
     1
 40
1.0
176
     1
 90
        0
176
     1
 62
    18
420
        0
176
     1
 90
       50
176
     1
 90
        3
176
     1
 62
     5
420
      255
176
     1
290
     0
176
     1
 90
       50
176
     1
 90
       50
176
     1
 90
       50
176
     1
290
     0
176
     1
 90
       50
176
     1
 62
   256
176
     0
 40
1.0
176
     0
 90
        2
176
     1
  1
strokes_ogs.tif
176
     1
290
     0
176
     1
 40
1.0
176
     1
 40
1.0
176
     1
  0
VISUALSTYLE
  5
241C2
102
{ACAD_REACTORS
330
241C1
102
}
330
241C1
100
AcDbVisualStyle
  2
Flat
 70
     0
177
     3
291
     1
 70
    58
 90
        2
176
     1
 90
        1
176
     1
 90
        1
176
     1
 90
        2
176
     1
 40
-0.6
176
     1
 40
30.0
176
     1
 62
     7
420
 16777215
176
     1
 90
        0
176
     1
 90
        4
176
     1
 62
     7
176
     1
 62
   257
176
     1
 90
        1
176
     1
 90
        1
176
     1
 40
1.0
176
     1
 90
        8
176
     1
 62
     7
176
     1
 40
1.0
176
     1
 90
        1
176
     1
 90
        6
176
     1
 90
        2
176
     1
 62
     7
176
     1
 90
        5
176
     1
 90
        0
176
     1
 90
        0
176
     1
290
     0
176
     1
 90
       13
176
     1
 40
0.0
176
     1
 90
        0
176
     1
290
     0
176
     1
290
     1
176
     1
290
     1
176
     1
290
     0
176
     1
290
     0
176
     1
290
     0
176
     1
290
     0
176
     1
290
     0
176
     1
290
     0
176
     1
 90
       50
176
     1
 40
0.0
176
     1
 40
1.0
176
     1
 90
        0
176
     1
 62
    18
420
        0
176
     1
 90
       50
176
     1
 90
        3
176
     1
 62
     5
420
      255
176
     1
290
     0
176
     1
 90
       50
176
     1
 90
       50
176
     1
 90
       50
176
     1
290
     0
176
     1
 90
       50
176
     1
 62
   256
176
     0
 40
1.0
176
     0
 90
        2
176
     1
  1
strokes_ogs.tif
176
     1
290
     0
176
     1
 40
1.0
176
     1
 40
1.0
176
     1
  0
VISUALSTYLE
  5
241C3
102
{ACAD_REACTORS
330
241C1
102
}
330
241C1
100
AcDbVisualStyle
  2
FlatWithEdges
 70
     1
177
     3
291
     1
 70
    58
 90
        2
176
     1
 90
        1
176
     1
 90
        1
176
     1
 90
        2
176
     1
 40
-0.6
176
     1
 40
30.0
176
     1
 62
     7
420
 16777215
176
     1
 90
        1
176
     1
 90
        4
176
     1
 62
     7
176
     1
 62
   257
176
     1
 90
        1
176
     1
 90
        1
176
     1
 40
1.0
176
     1
 90
        0
176
     1
 62
   257
176
     1
 40
1.0
176
     1
 90
        1
176
     1
 90
        6
176
     1
 90
        2
176
     1
 62
     7
176
     1
 90
        5
176
     1
 90
        0
176
     1
 90
        0
176
     1
290
     0
176
     1
 90
       13
176
     1
 40
0.0
176
     1
 90
        0
176
     1
290
     0
176
     1
290
     1
176
     1
290
     1
176
     1
290
     0
176
     1
290
     0
176
     1
290
     0
176
     1
290
     0
176
     1
290
     0
176
     1
290
     0
176
     1
 90
       50
176
     1
 40
0.0
176
     1
 40
1.0
176
     1
 90
        0
176
     1
 62
    18
420
        0
176
     1
 90
       50
176
     1
 90
        3
176
     1
 62
     5
420
      255
176
     1
290
     0
176
     1
 90
       50
176
     1
 90
       50
176
     1
 90
       50
176
     1
290
     0
176
     1
 90
       50
176
     1
 62
   256
176
     0
 40
1.0
176
     0
 90
        2
176
     1
  1
strokes_ogs.tif
176
     1
290
     0
176
     1
 40
1.0
176
     1
 40
1.0
176
     1
  0
VISUALSTYLE
  5
241C4
102
{ACAD_REACTORS
330
241C1
102
}
330
241C1
100
AcDbVisualStyle
  2
Gouraud
 70
     2
177
     3
291
     1
 70
    58
 90
        2
176
     1
 90
        2
176
     1
 90
        1
176
     1
 90
        2
176
     1
 40
-0.6
176
     1
 40
30.0
176
     1
 62
     7
420
 16777215
176
     1
 90
        0
176
     1
 90
        4
176
     1
 62
     7
176
     1
 62
   257
176
     1
 90
        1
176
     1
 90
        1
176
     1
 40
1.0
176
     1
 90
        0
176
     1
 62
     7
176
     1
 40
1.0
176
     1
 90
        1
176
     1
 90
        6
176
     1
 90
        2
176
     1
 62
     7
176
     1
 90
        5
176
     1
 90
        0
176
     1
 90
        0
176
     1
290
     0
176
     1
 90
       13
176
     1
 40
0.0
176
     1
 90
        0
176
     1
290
     0
176
     1
290
     1
176
     1
290
     1
176
     1
290
     0
176
     1
290
     0
176
     1
290
     0
176
     1
290
     0
176
     1
290
     0
176
     1
290
     0
176
     1
 90
       50
176
     1
 40
0.0
176
     1
 40
1.0
176
     1
 90
        0
176
     1
 62
    18
420
        0
176
     1
 90
       50
176
     1
 90
        3
176
     1
 62
     5
420
      255
176
     1
290
     0
176
     1
 90
       50
176
     1
 90
       50
176
     1
 90
       50
176
     1
290
     0
176
     1
 90
       50
176
     1
 62
   256
176
     0
 40
1.0
176
     0
 90
        2
176
     1
  1
strokes_ogs.tif
176
     1
290
     0
176
     1
 40
1.0
176
     1
 40
1.0
176
     1
  0
VISUALSTYLE
  5
241C5
102
{ACAD_REACTORS
330
241C1
102
}
330
241C1
100
AcDbVisualStyle
  2
GouraudWithEdges
 70
     3
177
     3
291
     1
 70
    58
 90
        2
176
     1
 90
        2
176
     1
 90
        1
176
     1
 90
        2
176
     1
 40
-0.6
176
     1
 40
30.0
176
     1
 62
     7
420
 16777215
176
     1
 90
        1
176
     1
 90
        4
176
     1
 62
     7
176
     1
 62
   257
176
     1
 90
        1
176
     1
 90
        1
176
     1
 40
1.0
176
     1
 90
        0
176
     1
 62
   257
176
     1
 40
1.0
176
     1
 90
        1
176
     1
 90
        6
176
     1
 90
        2
176
     1
 62
     7
176
     1
 90
        5
176
     1
 90
        0
176
     1
 90
        0
176
     1
290
     0
176
     1
 90
       13
176
     1
 40
0.0
176
     1
 90
        0
176
     1
290
     0
176
     1
290
     1
176
     1
290
     1
176
     1
290
     0
176
     1
290
     0
176
     1
290
     0
176
     1
290
     0
176
     1
290
     0
176
     1
290
     0
176
     1
 90
       50
176
     1
 40
0.0
176
     1
 40
1.0
176
     1
 90
        0
176
     1
 62
    18
420
        0
176
     1
 90
       50
176
     1
 90
        3
176
     1
 62
     5
420
      255
176
     1
290
     0
176
     1
 90
       50
176
     1
 90
       50
176
     1
 90
       50
176
     1
290
     0
176
     1
 90
       50
176
     1
 62
   256
176
     0
 40
1.0
176
     0
 90
        2
176
     1
  1
strokes_ogs.tif
176
     1
290
     0
176
     1
 40
1.0
176
     1
 40
1.0
176
     1
  0
VISUALSTYLE
  5
24DF9
102
{ACAD_REACTORS
330
241C1
102
}
330
241C1
100
AcDbVisualStyle
  2
Hidden
 70
     6
177
     3
291
     0
 70
    58
 90
        1
176
     1
 90
        2
176
     1
 90
        2
176
     1
 90
        0
176
     1
 40
-0.6
176
     1
 40
-30.0
176
     1
 62
     7
420
 16777215
176
     1
 90
        2
176
     1
 90
        2
176
     1
 62
     7
176
     1
 62
   257
176
     1
 90
        2
176
     1
 90
        1
176
     1
 40
40.0
176
     1
 90
        0
176
     1
 62
   257
176
     1
 40
1.0
176
     1
 90
        1
176
     1
 90
        6
176
     1
 90
        2
176
     1
 62
     7
176
     1
 90
        3
176
     1
 90
        0
176
     1
 90
        0
176
     1
290
     0
176
     1
 90
        1
176
     1
 40
0.0
176
     1
 90
        0
176
     1
290
     0
176
     1
290
     1
176
     1
290
     1
176
     1
290
     0
176
     1
290
     0
176
     1
290
     0
176
     1
290
     0
176
     1
290
     0
176
     1
290
     0
176
     1
 90
       50
176
     1
 40
0.0
176
     1
 40
1.0
176
     1
 90
        0
176
     1
 62
    18
420
        0
176
     1
 90
       50
176
     1
 90
        3
176
     1
 62
     5
420
      255
176
     1
290
     0
176
     1
 90
       50
176
     1
 90
       50
176
     1
 90
       50
176
     1
290
     0
176
     1
 90
       50
176
     1
 62
   256
176
     0
 40
1.0
176
     0
 90
        2
176
     1
  1
strokes_ogs.tif
176
     1
290
     0
176
     1
 40
1.0
176
     1
 40
1.0
176
     1
  0
VISUALSTYLE
  5
24DFF
102
{ACAD_REACTORS
330
241C1
102
}
330
241C1
100
AcDbVisualStyle
  2
JitterOff
 70
    20
177
     3
291
     1
 70
    58
 90
        2
176
     0
 90
        2
176
     0
 90
        0
176
     0
 90
        0
176
     0
 40
-0.6
176
     0
 40
-30.0
176
     0
 62
     7
420
 16777215
176
     0
 90
        1
176
     0
 90
        4
176
     0
 62
     7
176
     0
 62
   257
176
     0
 90
        1
176
     0
 90
        1
176
     0
 40
1.0
176
     0
 90
       10
176
     2
 62
     7
176
     0
 40
1.0
176
     0
 90
        1
176
     0
 90
        6
176
     0
 90
        2
176
     0
 62
     7
176
     0
 90
        5
176
     0
 90
        0
176
     0
 90
        0
176
     0
290
     0
176
     0
 90
        1
176
     0
 40
0.0
176
     0
 90
        0
176
     0
290
     0
176
     1
290
     1
176
     1
290
     1
176
     1
290
     0
176
     1
290
     0
176
     1
290
     0
176
     1
290
     0
176
     1
290
     0
176
     1
290
     0
176
     1
 90
       50
176
     1
 40
0.0
176
     1
 40
1.0
176
     1
 90
        0
176
     1
 62
    18
420
        0
176
     1
 90
       50
176
     1
 90
        3
176
     1
 62
     5
420
      255
176
     1
290
     0
176
     1
 90
       50
176
     1
 90
       50
176
     1
 90
       50
176
     1
290
     0
176
     1
 90
       50
176
     1
 62
   256
176
     0
 40
1.0
176
     0
 90
        2
176
     1
  1
strokes_ogs.tif
176
     1
290
     0
176
     1
 40
1.0
176
     1
 40
1.0
176
     1
  0
VISUALSTYLE
  5
241CF
102
{ACAD_REACTORS
330
241C1
102
}
330
241C1
100
AcDbVisualStyle
  2
Linepattern
 70
    14
177
     3
291
     1
 70
    58
 90
        2
176
     1
 90
        2
176
     1
 90
        0
176
     1
 90
        0
176
     1
 40
-0.6
176
     1
 40
-30.0
176
     1
 62
     7
420
 16777215
176
     1
 90
        1
176
     1
 90
        4
176
     1
 62
     7
176
     1
 62
   257
176
     1
 90
        7
176
     1
 90
        7
176
     1
 40
1.0
176
     1
 90
        8
176
     1
 62
     7
176
     1
 40
1.0
176
     1
 90
        1
176
     1
 90
        6
176
     1
 90
        2
176
     1
 62
     7
176
     1
 90
        5
176
     1
 90
        0
176
     1
 90
        0
176
     1
290
     0
176
     1
 90
        1
176
     1
 40
0.0
176
     1
 90
        0
176
     1
290
     0
176
     1
290
     1
176
     1
290
     1
176
     1
290
     0
176
     1
290
     0
176
     1
290
     0
176
     1
290
     0
176
     1
290
     0
176
     1
290
     0
176
     1
 90
       50
176
     1
 40
0.0
176
     1
 40
1.0
176
     1
 90
        0
176
     1
 62
    18
420
        0
176
     1
 90
       50
176
     1
 90
        3
176
     1
 62
     5
420
      255
176
     1
290
     0
176
     1
 90
       50
176
     1
 90
       50
176
     1
 90
       50
176
     1
290
     0
176
     1
 90
       50
176
     1
 62
   256
176
     0
 40
1.0
176
     0
 90
        2
176
     1
  1
strokes_ogs.tif
176
     1
290
     0
176
     1
 40
1.0
176
     1
 40
1.0
176
     1
  0
VISUALSTYLE
  5
24E00
102
{ACAD_REACTORS
330
241C1
102
}
330
241C1
100
AcDbVisualStyle
  2
OverhangOff
 70
    21
177
     3
291
     1
 70
    58
 90
        2
176
     0
 90
        2
176
     0
 90
        0
176
     0
 90
        0
176
     0
 40
-0.6
176
     0
 40
-30.0
176
     0
 62
     7
420
 16777215
176
     0
 90
        1
176
     0
 90
        4
176
     0
 62
     7
176
     0
 62
   257
176
     0
 90
        1
176
     0
 90
        1
176
     0
 40
1.0
176
     0
 90
        9
176
     2
 62
     7
176
     0
 40
1.0
176
     0
 90
        1
176
     0
 90
        6
176
     0
 90
        2
176
     0
 62
     7
176
     0
 90
        5
176
     0
 90
        0
176
     0
 90
        0
176
     0
290
     0
176
     0
 90
        1
176
     0
 40
0.0
176
     0
 90
        0
176
     0
290
     0
176
     1
290
     1
176
     1
290
     1
176
     1
290
     0
176
     1
290
     0
176
     1
290
     0
176
     1
290
     0
176
     1
290
     0
176
     1
290
     0
176
     1
 90
       50
176
     1
 40
0.0
176
     1
 40
1.0
176
     1
 90
        0
176
     1
 62
    18
420
        0
176
     1
 90
       50
176
     1
 90
        3
176
     1
 62
     5
420
      255
176
     1
290
     0
176
     1
 90
       50
176
     1
 90
       50
176
     1
 90
       50
176
     1
290
     0
176
     1
 90
       50
176
     1
 62
   256
176
     0
 40
1.0
176
     0
 90
        2
176
     1
  1
strokes_ogs.tif
176
     1
290
     0
176
     1
 40
1.0
176
     1
 40
1.0
176
     1
  0
VISUALSTYLE
  5
241CB
102
{ACAD_REACTORS
330
241C1
102
}
330
241C1
100
AcDbVisualStyle
  2
Realistic
 70
     8
177
     3
291
     0
 70
    58
 90
        2
176
     1
 90
        2
176
     1
 90
        0
176
     1
 90
        0
176
     1
 40
-0.6
176
     1
 40
-30.0
176
     1
 62
     7
420
 16777215
176
     1
 90
        1
176
     1
 90
        0
176
     1
 62
     7
176
     1
 62
   257
176
     1
 90
        1
176
     1
 90
        1
176
     1
 40
1.0
176
     1
 90
        8
176
     1
 62
     8
420
  7895160
176
     1
 40
1.0
176
     1
 90
        1
176
     1
 90
        6
176
     1
 90
        2
176
     1
 62
     7
176
     1
 90
        5
176
     1
 90
        0
176
     1
 90
        0
176
     1
290
     0
176
     1
 90
       13
176
     1
 40
0.0
176
     1
 90
        0
176
     1
290
     0
176
     1
290
     1
176
     1
290
     1
176
     1
290
     0
176
     1
290
     0
176
     1
290
     0
176
     1
290
     0
176
     1
290
     0
176
     1
290
     0
176
     1
 90
       50
176
     1
 40
0.0
176
     1
 40
1.0
176
     1
 90
        0
176
     1
 62
    18
420
        0
176
     1
 90
       50
176
     1
 90
        3
176
     1
 62
     5
420
      255
176
     1
290
     0
176
     1
 90
       50
176
     1
 90
       50
176
     1
 90
       50
176
     1
290
     0
176
     1
 90
       50
176
     1
 62
   256
176
     0
 40
1.0
176
     0
 90
        2
176
     1
  1
strokes_ogs.tif
176
     1
290
     0
176
     1
 40
1.0
176
     1
 40
1.0
176
     1
  0
VISUALSTYLE
  5
24DFE
102
{ACAD_REACTORS
330
241C1
102
}
330
241C1
100
AcDbVisualStyle
  2
Shaded
 70
    27
177
     3
291
     0
 70
    58
 90
        2
176
     1
 90
        2
176
     1
 90
        1
176
     1
 90
        2
176
     1
 40
-0.6
176
     1
 40
30.0
176
     1
 62
     7
420
 16777215
176
     1
 90
        0
176
     1
 90
        4
176
     1
 62
     7
176
     1
 62
   257
176
     1
 90
        1
176
     1
 90
        1
176
     1
 40
1.0
176
     1
 90
        8
176
     1
 62
   257
176
     1
 40
1.0
176
     1
 90
        1
176
     1
 90
        6
176
     1
 90
        2
176
     1
 62
     8
420
  7895160
176
     1
 90
        3
176
     1
 90
        0
176
     1
 90
        0
176
     1
290
     0
176
     1
 90
        5
176
     1
 40
0.0
176
     1
 90
        0
176
     1
290
     0
176
     1
290
     1
176
     1
290
     1
176
     1
290
     0
176
     1
290
     0
176
     1
290
     0
176
     1
290
     0
176
     1
290
     0
176
     1
290
     0
176
     1
 90
       50
176
     1
 40
0.0
176
     1
 40
1.0
176
     1
 90
        0
176
     1
 62
    18
420
        0
176
     1
 90
       50
176
     1
 90
        3
176
     1
 62
     5
420
      255
176
     1
290
     0
176
     1
 90
       50
176
     1
 90
       50
176
     1
 90
       50
176
     1
290
     0
176
     1
 90
       50
176
     1
 62
   256
176
     0
 40
1.0
176
     0
 90
        2
176
     1
  1
strokes_ogs.tif
176
     1
290
     0
176
     1
 40
1.0
176
     1
 40
1.0
176
     1
  0
VISUALSTYLE
  5
24DFD
102
{ACAD_REACTORS
330
241C1
102
}
330
241C1
100
AcDbVisualStyle
  2
Shaded with edges
 70
    26
177
     3
291
     0
 70
    58
 90
        2
176
     1
 90
        2
176
     1
 90
        1
176
     1
 90
        2
176
     1
 40
-0.6
176
     1
 40
30.0
176
     1
 62
     7
420
 16777215
176
     1
 90
        1
176
     1
 90
       10
176
     1
 62
     7
176
     1
 62
   257
176
     1
 90
        2
176
     1
 90
        1
176
     1
 40
1.0
176
     1
 90
        8
176
     1
 62
   257
176
     1
 40
1.0
176
     1
 90
        1
176
     1
 90
        6
176
     1
 90
        2
176
     1
 62
     7
176
     1
 90
        3
176
     1
 90
        0
176
     1
 90
        0
176
     1
290
     0
176
     1
 90
        5
176
     1
 40
0.0
176
     1
 90
        0
176
     1
290
     0
176
     1
290
     1
176
     1
290
     1
176
     1
290
     0
176
     1
290
     0
176
     1
290
     0
176
     1
290
     0
176
     1
290
     0
176
     1
290
     0
176
     1
 90
       50
176
     1
 40
0.0
176
     1
 40
1.0
176
     1
 90
        0
176
     1
 62
    18
420
        0
176
     1
 90
       50
176
     1
 90
        3
176
     1
 62
     5
420
      255
176
     1
290
     0
176
     1
 90
       50
176
     1
 90
       50
176
     1
 90
       50
176
     1
290
     0
176
     1
 90
       50
176
     1
 62
   256
176
     0
 40
1.0
176
     0
 90
        2
176
     1
  1
strokes_ogs.tif
176
     1
290
     0
176
     1
 40
1.0
176
     1
 40
1.0
176
     1
  0
VISUALSTYLE
  5
24DFA
102
{ACAD_REACTORS
330
241C1
102
}
330
241C1
100
AcDbVisualStyle
  2
Shades of Gray
 70
    23
177
     3
291
     0
 70
    58
 90
        2
176
     1
 90
        2
176
     1
 90
        3
176
     1
 90
        0
176
     1
 40
-0.6
176
     1
 40
-30.0
176
     1
 62
     7
420
 16777215
176
     1
 90
        2
176
     1
 90
        2
176
     1
 62
     7
176
     1
 62
     7
176
     1
 90
        1
176
     1
 90
        1
176
     1
 40
40.0
176
     1
 90
        8
176
     1
 62
     7
176
     1
 40
1.0
176
     1
 90
        1
176
     1
 90
        6
176
     1
 90
        2
176
     1
 62
     7
176
     1
 90
        3
176
     1
 90
        0
176
     1
 90
        0
176
     1
290
     0
176
     1
 90
        1
176
     1
 40
0.0
176
     1
 90
        0
176
     1
290
     0
176
     1
290
     1
176
     1
290
     1
176
     1
290
     0
176
     1
290
     0
176
     1
290
     0
176
     1
290
     0
176
     1
290
     0
176
     1
290
     0
176
     1
 90
       50
176
     1
 40
0.0
176
     1
 40
1.0
176
     1
 90
        0
176
     1
 62
    18
420
        0
176
     1
 90
       50
176
     1
 90
        3
176
     1
 62
     5
420
      255
176
     1
290
     0
176
     1
 90
       50
176
     1
 90
       50
176
     1
 90
       50
176
     1
290
     0
176
     1
 90
       50
176
     1
 62
   256
176
     0
 40
1.0
176
     0
 90
        2
176
     1
  1
strokes_ogs.tif
176
     1
290
     0
176
     1
 40
1.0
176
     1
 40
1.0
176
     1
  0
VISUALSTYLE
  5
24DFB
102
{ACAD_REACTORS
330
241C1
102
}
330
241C1
100
AcDbVisualStyle
  2
Sketchy
 70
    24
177
     3
291
     0
 70
    58
 90
        1
176
     1
 90
        2
176
     1
 90
        2
176
     1
 90
        0
176
     1
 40
-0.6
176
     1
 40
-30.0
176
     1
 62
     7
420
 16777215
176
     1
 90
        2
176
     1
 90
        2
176
     1
 62
     7
176
     1
 62
     7
176
     1
 90
        1
176
     1
 90
        1
176
     1
 40
40.0
176
     1
 90
       11
176
     1
 62
     7
176
     1
 40
1.0
176
     1
 90
        1
176
     1
 90
        6
176
     1
 90
        2
176
     1
 62
     7
176
     1
 90
        6
176
     1
 90
        0
176
     1
 90
        0
176
     1
290
     0
176
     1
 90
        1
176
     1
 40
0.0
176
     1
 90
        0
176
     1
290
     0
176
     1
290
     1
176
     1
290
     1
176
     1
290
     0
176
     1
290
     0
176
     1
290
     0
176
     1
290
     0
176
     1
290
     0
176
     1
290
     0
176
     1
 90
       50
176
     1
 40
0.0
176
     1
 40
1.0
176
     1
 90
        0
176
     1
 62
    18
420
        0
176
     1
 90
       50
176
     1
 90
        3
176
     1
 62
     5
420
      255
176
     1
290
     0
176
     1
 90
       50
176
     1
 90
       50
176
     1
 90
       50
176
     1
290
     0
176
     1
 90
       50
176
     1
 62
   256
176
     0
 40
1.0
176
     0
 90
        2
176
     1
  1
strokes_ogs.tif
176
     1
290
     0
176
     1
 40
1.0
176
     1
 40
1.0
176
     1
  0
VISUALSTYLE
  5
241CE
102
{ACAD_REACTORS
330
241C1
102
}
330
241C1
100
AcDbVisualStyle
  2
Thicken
 70
    13
177
     3
291
     1
 70
    58
 90
        2
176
     1
 90
        2
176
     1
 90
        0
176
     1
 90
        0
176
     1
 40
-0.6
176
     1
 40
-30.0
176
     1
 62
     7
420
 16777215
176
     1
 90
        1
176
     1
 90
        4
176
     1
 62
     7
176
     1
 62
   257
176
     1
 90
        1
176
     1
 90
        1
176
     1
 40
1.0
176
     1
 90
       12
176
     1
 62
     7
176
     1
 40
1.0
176
     1
 90
        1
176
     1
 90
        6
176
     1
 90
        2
176
     1
 62
     7
176
     1
 90
        5
176
     1
 90
        0
176
     1
 90
        0
176
     1
290
     0
176
     1
 90
        1
176
     1
 40
0.0
176
     1
 90
        0
176
     1
290
     0
176
     1
290
     1
176
     1
290
     1
176
     1
290
     0
176
     1
290
     0
176
     1
290
     0
176
     1
290
     0
176
     1
290
     0
176
     1
290
     0
176
     1
 90
       50
176
     1
 40
0.0
176
     1
 40
1.0
176
     1
 90
        0
176
     1
 62
    18
420
        0
176
     1
 90
       50
176
     1
 90
        3
176
     1
 62
     5
420
      255
176
     1
290
     0
176
     1
 90
       50
176
     1
 90
       50
176
     1
 90
       50
176
     1
290
     0
176
     1
 90
       50
176
     1
 62
   256
176
     0
 40
1.0
176
     0
 90
        2
176
     1
  1
strokes_ogs.tif
176
     1
290
     0
176
     1
 40
1.0
176
     1
 40
1.0
176
     1
  0
VISUALSTYLE
  5
24DF8
102
{ACAD_REACTORS
330
241C1
102
}
330
241C1
100
AcDbVisualStyle
  2
Wireframe
 70
     5
177
     3
291
     0
 70
    58
 90
        0
176
     1
 90
        2
176
     1
 90
        0
176
     1
 90
        0
176
     1
 40
-0.6
176
     1
 40
-30.0
176
     1
 62
     7
420
 16777215
176
     1
 90
        1
176
     1
 90
        4
176
     1
 62
     7
176
     1
 62
   257
176
     1
 90
        1
176
     1
 90
        1
176
     1
 40
1.0
176
     1
 90
        0
176
     1
 62
   257
176
     1
 40
1.0
176
     1
 90
        1
176
     1
 90
        6
176
     1
 90
        2
176
     1
 62
     7
176
     1
 90
        3
176
     1
 90
        0
176
     1
 90
        0
176
     1
290
     0
176
     1
 90
        1
176
     1
 40
0.0
176
     1
 90
        0
176
     1
290
     0
176
     1
290
     1
176
     1
290
     1
176
     1
290
     0
176
     1
290
     0
176
     1
290
     0
176
     1
290
     0
176
     1
290
     0
176
     1
290
     0
176
     1
 90
       50
176
     1
 40
0.0
176
     1
 40
1.0
176
     1
 90
        0
176
     1
 62
    18
420
        0
176
     1
 90
       50
176
     1
 90
        3
176
     1
 62
     5
420
      255
176
     1
290
     0
176
     1
 90
       50
176
     1
 90
       50
176
     1
 90
       50
176
     1
290
     0
176
     1
 90
       50
176
     1
 62
   256
176
     0
 40
1.0
176
     0
 90
        2
176
     1
  1
strokes_ogs.tif
176
     1
290
     0
176
     1
 40
1.0
176
     1
 40
1.0
176
     1
  0
VISUALSTYLE
  5
24DFC
102
{ACAD_REACTORS
330
241C1
102
}
330
241C1
100
AcDbVisualStyle
  2
X-Ray
 70
    25
177
     3
291
     0
 70
    58
 90
        2
176
     1
 90
        2
176
     1
 90
        1
176
     1
 90
        1
176
     1
 40
0.5
176
     1
 40
-30.0
176
     1
 62
     7
420
 16777215
176
     1
 90
        1
176
     1
 90
        0
176
     1
 62
     7
176
     1
 62
   257
176
     1
 90
        1
176
     1
 90
        1
176
     1
 40
1.0
176
     1
 90
        8
176
     1
 62
     7
176
     1
 40
1.0
176
     1
 90
        1
176
     1
 90
        6
176
     1
 90
        2
176
     1
 62
     7
176
     1
 90
        3
176
     1
 90
        0
176
     1
 90
        0
176
     1
290
     0
176
     1
 90
       13
176
     1
 40
0.0
176
     1
 90
        0
176
     1
290
     0
176
     1
290
     1
176
     1
290
     1
176
     1
290
     0
176
     1
290
     0
176
     1
290
     0
176
     1
290
     0
176
     1
290
     0
176
     1
290
     0
176
     1
 90
       50
176
     1
 40
0.0
176
     1
 40
1.0
176
     1
 90
        0
176
     1
 62
    18
420
        0
176
     1
 90
       50
176
     1
 90
        3
176
     1
 62
     5
420
      255
176
     1
290
     0
176
     1
 90
       50
176
     1
 90
       50
176
     1
 90
       50
176
     1
290
     0
176
     1
 90
       50
176
     1
 62
   256
176
     0
 40
1.0
176
     0
 90
        2
176
     1
  1
strokes_ogs.tif
176
     1
290
     0
176
     1
 40
1.0
176
     1
 40
1.0
176
     1
  0
DICTIONARYVAR
  5
24DD1
102
{ACAD_REACTORS
330
30
102
}
330
30
100
DictionaryVariables
280
     0
  1
1:1
  0
DICTIONARYVAR
  5
24DCF
102
{ACAD_REACTORS
330
30
102
}
330
30
100
DictionaryVariables
280
     0
  1
Standard
  0
DICTIONARYVAR
  5
E5ED
102
{ACAD_REACTORS
330
30
102
}
330
30
100
DictionaryVariables
280
     0
  1
Standard
  0
DICTIONARYVAR
  5
2996B
102
{ACAD_REACTORS
330
30
102
}
330
30
100
DictionaryVariables
280
     0
  1
Metric50
  0
DICTIONARYVAR
  5
2996C
102
{ACAD_REACTORS
330
30
102
}
330
30
100
DictionaryVariables
280
     0
  1
Metric50
  0
DICTIONARYVAR
  5
31
102
{ACAD_REACTORS
330
30
102
}
330
30
100
DictionaryVariables
280
     0
  1
1
  0
DICTIONARYVAR
  5
2613C
102
{ACAD_REACTORS
330
30
102
}
330
30
100
DictionaryVariables
280
     0
  1
1
  0
DICTIONARYVAR
  5
2613D
102
{ACAD_REACTORS
330
30
102
}
330
30
100
DictionaryVariables
280
     0
  1
15
  0
DICTIONARYVAR
  5
24DD2
102
{ACAD_REACTORS
330
30
102
}
330
30
100
DictionaryVariables
280
     0
  1
0
  0
DICTIONARYVAR
  5
24DD0
102
{ACAD_REACTORS
330
30
102
}
330
30
100
DictionaryVariables
280
     0
  1
0
  0
DICTIONARYVAR
  5
2996D
102
{ACAD_REACTORS
330
30
102
}
330
30
100
DictionaryVariables
280
     0
  1
1
  0
DICTIONARYVAR
  5
299C9
102
{ACAD_REACTORS
330
30
102
}
330
30
100
DictionaryVariables
280
     0
  1
0
  0
DICTIONARY
  5
307C
102
{ACAD_REACTORS
330
43
102
}
330
43
100
AcDbDictionary
281
     1
  0
XRECORD
  5
E5D6
102
{ACAD_REACTORS
330
43
102
}
330
43
100
AcDbXrecord
280
     1
 90
-1023410169
  0
DICTIONARY
  5
299CE
330
E57B
100
AcDbDictionary
280
     1
281
     1
  3
ACAD_ROUNDTRIP_2008_TABLESTYLE_CELLSTYLEMAP
360
299CF
  0
CELLSTYLEMAP
  5
299CF
102
{ACAD_REACTORS
330
299CE
102
}
330
299CE
100
AcDbCellStyleMap
 90
        3
300
CELLSTYLE
  1
TABLEFORMAT_BEGIN
 90
        5
170
     1
 91
        0
 92
    32768
 62
   257
 93
        1
300
CONTENTFORMAT
  1
CONTENTFORMAT_BEGIN
 90
        0
 91
        0
 92
        4
 93
        0
300

 40
0.0
140
1.0
 94
        5
 62
     0
340
11
144
6.0
309
CONTENTFORMAT_END
171
     1
301
MARGIN
  1
CELLMARGIN_BEGIN
 40
1.5
 40
1.5
 40
1.5
 40
1.5
 40
0.18
 40
0.18
309
CELLMARGIN_END
 94
        6
 95
        1
302
GRIDFORMAT
  1
GRIDFORMAT_BEGIN
 90
        0
 91
        1
 62
     0
 92
       -2
340
0
 93
        0
 40
0.045
309
GRIDFORMAT_END
 95
        2
302
GRIDFORMAT
  1
GRIDFORMAT_BEGIN
 90
        0
 91
        1
 62
     0
 92
       -2
340
0
 93
        0
 40
0.045
309
GRIDFORMAT_END
 95
        4
302
GRIDFORMAT
  1
GRIDFORMAT_BEGIN
 90
        0
 91
        1
 62
     0
 92
       -2
340
0
 93
        0
 40
0.045
309
GRIDFORMAT_END
 95
        8
302
GRIDFORMAT
  1
GRIDFORMAT_BEGIN
 90
        0
 91
        1
 62
     0
 92
       -2
340
0
 93
        0
 40
0.045
309
GRIDFORMAT_END
 95
       16
302
GRIDFORMAT
  1
GRIDFORMAT_BEGIN
 90
        0
 91
        1
 62
     0
 92
       -2
340
0
 93
        0
 40
0.045
309
GRIDFORMAT_END
 95
       32
302
GRIDFORMAT
  1
GRIDFORMAT_BEGIN
 90
        0
 91
        1
 62
     0
 92
       -2
340
0
 93
        0
 40
0.045
309
GRIDFORMAT_END
309
TABLEFORMAT_END
  1
CELLSTYLE_BEGIN
 90
        1
 91
        1
300
_TITLE
309
CELLSTYLE_END
300
CELLSTYLE
  1
TABLEFORMAT_BEGIN
 90
        5
170
     1
 91
        0
 92
        0
 62
   257
 93
        1
300
CONTENTFORMAT
  1
CONTENTFORMAT_BEGIN
 90
        0
 91
        0
 92
        4
 93
        0
300

 40
0.0
140
1.0
 94
        5
 62
     0
340
11
144
4.5
309
CONTENTFORMAT_END
171
     1
301
MARGIN
  1
CELLMARGIN_BEGIN
 40
1.5
 40
1.5
 40
1.5
 40
1.5
 40
0.18
 40
0.18
309
CELLMARGIN_END
 94
        6
 95
        1
302
GRIDFORMAT
  1
GRIDFORMAT_BEGIN
 90
        0
 91
        1
 62
     0
 92
       -2
340
0
 93
        0
 40
0.045
309
GRIDFORMAT_END
 95
        2
302
GRIDFORMAT
  1
GRIDFORMAT_BEGIN
 90
        0
 91
        1
 62
     0
 92
       -2
340
0
 93
        0
 40
0.045
309
GRIDFORMAT_END
 95
        4
302
GRIDFORMAT
  1
GRIDFORMAT_BEGIN
 90
        0
 91
        1
 62
     0
 92
       -2
340
0
 93
        0
 40
0.045
309
GRIDFORMAT_END
 95
        8
302
GRIDFORMAT
  1
GRIDFORMAT_BEGIN
 90
        0
 91
        1
 62
     0
 92
       -2
340
0
 93
        0
 40
0.045
309
GRIDFORMAT_END
 95
       16
302
GRIDFORMAT
  1
GRIDFORMAT_BEGIN
 90
        0
 91
        1
 62
     0
 92
       -2
340
0
 93
        0
 40
0.045
309
GRIDFORMAT_END
 95
       32
302
GRIDFORMAT
  1
GRIDFORMAT_BEGIN
 90
        0
 91
        1
 62
     0
 92
       -2
340
0
 93
        0
 40
0.045
309
GRIDFORMAT_END
309
TABLEFORMAT_END
  1
CELLSTYLE_BEGIN
 90
        2
 91
        1
300
_HEADER
309
CELLSTYLE_END
300
CELLSTYLE
  1
TABLEFORMAT_BEGIN
 90
        5
170
     1
 91
        0
 92
        0
 62
   257
 93
        1
300
CONTENTFORMAT
  1
CONTENTFORMAT_BEGIN
 90
        0
 91
        0
 92
        4
 93
        0
300

 40
0.0
140
1.0
 94
        2
 62
     0
340
11
144
4.5
309
CONTENTFORMAT_END
171
     1
301
MARGIN
  1
CELLMARGIN_BEGIN
 40
1.5
 40
1.5
 40
1.5
 40
1.5
 40
0.18
 40
0.18
309
CELLMARGIN_END
 94
        6
 95
        1
302
GRIDFORMAT
  1
GRIDFORMAT_BEGIN
 90
        0
 91
        1
 62
     0
 92
       -2
340
0
 93
        0
 40
0.045
309
GRIDFORMAT_END
 95
        2
302
GRIDFORMAT
  1
GRIDFORMAT_BEGIN
 90
        0
 91
        1
 62
     0
 92
       -2
340
0
 93
        0
 40
0.045
309
GRIDFORMAT_END
 95
        4
302
GRIDFORMAT
  1
GRIDFORMAT_BEGIN
 90
        0
 91
        1
 62
     0
 92
       -2
340
0
 93
        0
 40
0.045
309
GRIDFORMAT_END
 95
        8
302
GRIDFORMAT
  1
GRIDFORMAT_BEGIN
 90
        0
 91
        1
 62
     0
 92
       -2
340
0
 93
        0
 40
0.045
309
GRIDFORMAT_END
 95
       16
302
GRIDFORMAT
  1
GRIDFORMAT_BEGIN
 90
        0
 91
        1
 62
     0
 92
       -2
340
0
 93
        0
 40
0.045
309
GRIDFORMAT_END
 95
       32
302
GRIDFORMAT
  1
GRIDFORMAT_BEGIN
 90
        0
 91
        1
 62
     0
 92
       -2
340
0
 93
        0
 40
0.045
309
GRIDFORMAT_END
309
TABLEFORMAT_END
  1
CELLSTYLE_BEGIN
 90
        3
 91
        2
300
_DATA
309
CELLSTYLE_END
  0
ENDSEC
  0
SECTION
  2
ACDSDATA
 70
     2
 71
     2
  0
ACDSSCHEMA
 90
        0
  1
AcDb_Thumbnail_Schema
  2
AcDbDs::ID
280
    10
 91
        8
  2
Thumbnail_Data
280
    15
 91
        0
101
ACDSRECORD
 95
        0
 90
        2
  2
AcDbDs::TreatedAsObjectData
280
     1
291
     1
101
ACDSRECORD
 95
        0
 90
        3
  2
AcDbDs::Legacy
280
     1
291
     1
101
ACDSRECORD
  1
AcDbDs::ID
 90
        4
  2
AcDs:Indexable
280
     1
291
     1
101
ACDSRECORD
  1
AcDbDs::ID
 90
        5
  2
AcDbDs::HandleAttribute
280
     7
282
     1
  0
ACDSSCHEMA
 90
        1
  1
AcDb3DSolid_ASM_Data
  2
AcDbDs::ID
280
    10
 91
        8
  2
ASM_Data
280
    15
 91
        0
101
ACDSRECORD
 95
        1
 90
        2
  2
AcDbDs::TreatedAsObjectData
280
     1
291
     1
101
ACDSRECORD
 95
        1
 90
        3
  2
AcDbDs::Legacy
280
     1
291
     1
101
ACDSRECORD
  1
AcDbDs::ID
 90
        4
  2
AcDs:Indexable
280
     1
291
     1
101
ACDSRECORD
  1
AcDbDs::ID
 90
        5
  2
AcDbDs::HandleAttribute
280
     7
282
     1
  0
ACDSSCHEMA
 90
        2
  1
AcDbDs::TreatedAsObjectDataSchema
  2
AcDbDs::TreatedAsObjectData
280
     1
 91
        0
  0
ACDSSCHEMA
 90
        3
  1
AcDbDs::LegacySchema
  2
AcDbDs::Legacy
280
     1
 91
        0
  0
ACDSSCHEMA
 90
        4
  1
AcDbDs::IndexedPropertySchema
  2
AcDs:Indexable
280
     1
 91
        0
  0
ACDSSCHEMA
 90
        5
  1
AcDbDs::HandleAttributeSchema
  2
AcDbDs::HandleAttribute
280
     7
 91
        1
284
     1
  0
ACDSRECORD
 90
        0
  2
AcDbDs::ID
280
    10
320
1E
  2
Thumbnail_Data
280
    15
 94
     3956
310
89504E470D0A1A0A0000000D49484452000001000000007F080300000037AFECF400000300504C5445000000000000C8C8C80000000000000000000000000000000000000000000000000000330000660000990000CC0000FF0033000033330033660033990033CC0033FF0066000066330066660066990066CC0066FF0099
310
000099330099660099990099CC0099FF00CC0000CC3300CC6600CC9900CCCC00CCFF00FF0000FF3300FF6600FF9900FFCC00FFFF3300003300333300663300993300CC3300FF3333003333333333663333993333CC3333FF3366003366333366663366993366CC3366FF3399003399333399663399993399CC3399FF33CC00
310
33CC3333CC6633CC9933CCCC33CCFF33FF0033FF3333FF6633FF9933FFCC33FFFF6600006600336600666600996600CC6600FF6633006633336633666633996633CC6633FF6666006666336666666666996666CC6666FF6699006699336699666699996699CC6699FF66CC0066CC3366CC6666CC9966CCCC66CCFF66FF0066
310
FF3366FF6666FF9966FFCC66FFFF9900009900339900669900999900CC9900FF9933009933339933669933999933CC9933FF9966009966339966669966999966CC9966FF9999009999339999669999999999CC9999FF99CC0099CC3399CC6699CC9999CCCC99CCFF99FF0099FF3399FF6699FF9999FFCC99FFFFCC0000CC00
310
33CC0066CC0099CC00CCCC00FFCC3300CC3333CC3366CC3399CC33CCCC33FFCC6600CC6633CC6666CC6699CC66CCCC66FFCC9900CC9933CC9966CC9999CC99CCCC99FFCCCC00CCCC33CCCC66CCCC99CCCCCCCCCCFFCCFF00CCFF33CCFF66CCFF99CCFFCCCCFFFFFF0000FF0033FF0066FF0099FF00CCFF00FFFF3300FF3333
310
FF3366FF3399FF33CCFF33FFFF6600FF6633FF6666FF6699FF66CCFF66FFFF9900FF9933FF9966FF9999FF99CCFF99FFFFCC00FFCC33FFCC66FFCC99FFCCCCFFCCFFFFFF00FFFF33FFFF66FFFF99FFFFCCFFFFFF0000000D0D0D1A1A1A2828283535354343435050505D5D5D6B6B6B787878868686939393A1A1A1AEAEAEBB
310
BBBBC9C9C9D6D6D6E4E4E4F1F1F1FFFFFF00000000000000000000000000000000000000000000000000000000000008F1915C000000097048597300000EC400000EC401952B0E1B00000C1A49444154789CED5C4982E4A80ED571B489FBEF7A53D7E01AEC7F1ACD421E32D3F8477497AA3BC3E110183D1E424C06F82B7FE5
310
82FCF940B917805B737B44D603D048F8E2C687F98CE13463C43AD1E703D0A09DE78C09004BF40000F42CC45B01F8B2478CC0862719E3105F1A4BF4840F409593E4BE7A4E484D795DCB7880653A31D16A00A46A4E8D27E54BA40E367F91FB2C5B84DE7A507389DE088061D4853AC560C02900AD2193DE107D630046D90E8DC2
310
AD42E122030691706BFA5F7F8D550F01E06BF3B4995AB547931AC4B6C0F5F9F50193766E39FCC5F900B9F31C032E3A402462DB354B4B36B5464D7A1835EE1F68CB55DF1EDFBBBBB91200F6E1226C3B01A0F77355B19B9A19104CD20AEDCDEA7397017CD18734FA901F1602902AC13501045FB8C06C715398F9099E3E9AC0F1
310
E92B51A13DC0DE6E0CA31500600842A2050038434700C63D36B848A825303674BAB8A9CAAD61A055F7E46945E342424BCCEF5F0FEC0E8295008416BFD9C541E868076AC554AF5F95DFE57B0900AACD52A1F24B010067CD0647068C842ED12A27385888D4076B2F903D215A0C6BB42E01D002932152A1E341D86675AE7F367F
310
3408FE36107802806139311B9BF442D9322E87D5D1502AEA54FC79AA50D80300C4FB6506D0AD07BA41EAA785D9ADA9870FE5344FB521C52DB460807A7452E94DEC23ED8C40535D6DF5CE217EFD71A82D024038A83DB079855450A9166BA5459DBA1ECD2AD42A330F1BC6C325E3908011580E406B42D7C6752096C7200FCC53
310
35A5E8E82FF6EC0FB9B236C0ACEEEC0D09203F620900ADC58A1D5410FF6FE554A6826FD67D26B5EFD3AD17A06B02A025755256CC3C65B67FEE116B0030C30C007EA20360982595A40C80A94E9900902B7458835DC31E5137F87B2E8694A62F056094C0C5A0B00F8031B585D2CD0004032457D19ED4BBFDF30C907BEE114B00
310
80C43D20006468060A9316D218007B00A839C200674B56EF596237F804005C3AEA0588018902BEAFE6EE02EA3ACD0CD04C4D3BA987EAEEAE184F01A025ED8D8BBB0B80D46353BB3200B3FDA44CD6D50038F68762804BB41C80CDAC8D7B0CC0368675E3843E221F29108AA2B8B5F1331BD421D4E9C855006027E8D4FB0C8015
310
A3BB449464C17C406B366B23C30199156FC40044F47A4E5F67AC9B4EFB06CDA4ABDA32E26849DB67EBEF68A2050CE8DB033C03661F40F37A63222430002606205FB9DA6306F48A01480C4057FFA1182E515FC48051020C8DAF04607C43EF03461121FA004DA6C567466368CE5E1D9A013B152334012BF2BD006C33901C798A
310
FB85EC040D0073ECF2253841B9F44E3C38F5E8040500EB0320148361790000A92F1709828B03387C15A07ADF8B030C801807F43A0E30009CD491E04A009AB641D809856341FD58A0EF0160D61C44829A6F8C04E1D948709BE77041387013A801C8A3A63416500042AB76A3DB5D06185F5C311C03960E865086B9CD4261D74A
310
41E607711EAFE5D1A0B935278ED169E844EA8E594619F775350063BA613CAC3599E5404F00A0296210A0C00D576600387AD0E28B72351FC000CCF30176DDC3235601C0017993A9BE3C21821AECE4499E34233466140D2A0700185C110069828E342E01F4076684B44C4D0214EE05DC2286467B0321EB05F294987245ECA1D1
310
20185C30A91B5F347799A212DAAC068087BBFCA7498D3B00464064935DCC6AD0597D53F450C50A9DE102C72C996DEB7938BC7E5698B2D7005CCC08968DA512B792A9A3993C2D4E4B0C74DDB942E5AA98161F0F0A636D7043CFF1DFFA75015DC6D0C28D0991645898CE13008A9521C71536CB1611E6550403B66200B0477A00
310
00AE782BD6B4422E4BC6C3B6C6EB96D5DA20426CE8C76B83A83EC828D05C9380A56B835A860980628740DABA26AD6506204DFD1A00E54AA269F7990139D13200D20C60BD41C2EEBA198DCAA4B8BD4001A8D792BD3653C02D262EDE1FC0459056E676B3D1B3E30CBE6B17E86F4EAAC695ED8300D8E38B6837E736DC72328555
310
4F38C1B03B660F007548C7002850A9B91C6BBB3E462F5A4AB4B617B02541C2A102001C43E81A0AD5E0435D7BD903C0F0A204FEDB8300D04E188CE20B3A5DEEA91A8B42BA0B7065CAA4444B0188542D249572BA9D350514DFB79CC315299312AD06006E0500AC35153FE55B585066BAB10880422A7D6BAB60DBA34B5D77ABC5
310
6DAF4770E9731F0760BF4CF1E68E1C268F6C397BD84E8E8B01B85F9C0D2DB8BC33B8E8EBBF02805D29B4C3B74C99A0F129007C4F2A005AADB11280DCFFEECA6545AF7CA41369D1E6006CF570981FFCFF04E04CEA22FF561E00608AEB7E29FF01008E13FC05E06A3697E4F7B9BD8EE52759FE05E0A30088728BAB7B3B00E2C9
310
A18BBACBE44100A4F3D5FA3803E06018799F3C0580B38501C07300B6058E7F090088617AE27092C0128D4982CF03A0F038188FBBF2AD33191CF93C06542ED7ED65D45B67869DCD26DD24EB0168548D5D96C8F9F62506E025BD5FC9FD00C45AD329D1DE74D19CEE5C00E0896E609D130CAB796171342E9BEE092233602D020B
310
0188479FFC9236B4760A00A235015B57BB3F2E5AD80D869D1B3DAC4DC0A9771F76AB0F908D041F05805BCEB75D1D7608E0180032DB9CE00702E017A765855ACE866E720200FD416D2A582C09DD5DE45B7313FBD3563D630116477EE907B06AD733E5E53680B0563ECB778B7C873800E823ED53B26D4A2700D0553700CA95A5
310
6300AE21B0EAEC307DF45E3140B68ED625FC0600B716F9D6DC9CFD15033A1F26AE10F011F0387184D7C286DF16F9DEDC6C03A86C4E95971EE8F71A001E3050CCCC8976E3C1931670AD11AC3A3B0C7E77773AE440DB75114A0A34C7003AEC346EFF0C800B08AC04C0ED59D7EDAD7A6F0F00E7033605DD105A35819319D46BB2
310
0080B0432F334070893BFF320062AE868FA50B78F1FFF67122AFF96AD1D96148A737C18EBCF3C91D8EEFE73CC226A07644808D01EF0B40CF920F6EED014022A369D9115E2ABD6D13D8FEA4735BF311FE1300D003B0D307BE6913702D40031F7F3CDE39C103047804E88FDB4C424D60D4E22BDEDEA961BBF9E2EBA50004C2D3
310
E1717772ED0C80312342C7DE8B1FA9F87FFEFC79D1DB815F97DE21FC2AAE16003068EB09DF311E793700FA714F4DD6373D78E300D0C745F9A792D322DF26237E250927D86556D8DD34C5E30C4126027E01C01112373300F5583A560CE83303FA61861C2E7D14007244D677FAE9C8FB651FB0B7B1E78D0100052039418AED73
310
1C7004C0C865B703188F1B57E6EC7FD2AB2F00808FC94B6D4B9DEB91F77E250E38930200EDE13C24AC20BF4AF0F85AD60D2A05E211FECB91E0D5B86D33200250AABE58F32526438802D6036067D8DD1B12E011004000909F3D00A6B51080140B8529B183C110BF2E802E7787F4DF6040F859224701620900FE950F3605924F
310
B0EFCD07406BDEFECB00D04D6EF5121BFB26A0C0F88FFB4361B1CB1DE10F4E307483250178564C1000A866030A00AAA6929DE044963500C82B1FC2AC68B34B8A8D7609C0AB61871B0406000349B624FBDCCB723B00BC0900ED8D079101CC835D00C67A58AAF43D06C4EAFE69916F94B13F805AEE5666FF0A83F80E83A37501
310
5D17B5D5B00B00FCB4D2178C06D1C6388EF5F309F6630290E90CD5910F60792700B63FF6C6E0FCD2837EBC342653822808421910BF3300715AB36000EC18E5646C0FB1F2CECAE77DF8C5C5812500D0E28EDC8C0CB8B83CBE8DAB0D810F030078754B6F3B06889C2CF553FD73578A7DF602D60DFE56EEB27D883B388969D9E3
310
5B7B84C6C6D23EC2C92D6977BB6C59E3800175AFE8EFFAC98145CBE3287359FA930380E2844300805F9488D4854A779800C8611F87BF1A19FB9FBDE20300CCAF30F0EFFD700AB50C000689503AC2F19F651700F8AE10003744519338386DA7244F93B7F0F504007ABDE4B63DA0CB5B594126897F0F40907500D8126FB55E6D
310
7BFF6A0086502CD40500279700F0AD40AF92C6B25D62982A39AF001C03402190F868CC63838F608059E96EB8AF170060043ACE6F61BA05005C0E806F091E8B93B1EE385FC008502750C701F2B85897CE2457CFBEAB7801BEC63F5CDB04D49ACACED38D921C39930F98B4C9A89F0AAFABE2621F102DCA261C022008882F9C43
310
E1D72F2241993DC16591E0645F1194EBAA5FE906D010A847832F371FF04316E422DF20F701E087C36833C8B44E0C1F014040C0BF25C67E3F1EB08D116107F51F4D5789DB3700F846916F9018089DC8F98855F4F600F8A90F08B20A802B7269C85E83470CF8556149DEFBF034CB1227C87233008FC9B53D4157E49A65FF033A
310
D78DCC271090AE0000000049454E44AE426082
  0
ACDSRECORD
 90
        0
  2
AcDbDs::ID
280
    10
320
22
  2
Thumbnail_Data
280
    15
 94
     3956
310
89504E470D0A1A0A0000000D49484452000001000000007F080300000037AFECF400000300504C5445000000000000C8C8C80000000000000000000000000000000000000000000000000000330000660000990000CC0000FF0033000033330033660033990033CC0033FF0066000066330066660066990066CC0066FF0099
310
000099330099660099990099CC0099FF00CC0000CC3300CC6600CC9900CCCC00CCFF00FF0000FF3300FF6600FF9900FFCC00FFFF3300003300333300663300993300CC3300FF3333003333333333663333993333CC3333FF3366003366333366663366993366CC3366FF3399003399333399663399993399CC3399FF33CC00
310
33CC3333CC6633CC9933CCCC33CCFF33FF0033FF3333FF6633FF9933FFCC33FFFF6600006600336600666600996600CC6600FF6633006633336633666633996633CC6633FF6666006666336666666666996666CC6666FF6699006699336699666699996699CC6699FF66CC0066CC3366CC6666CC9966CCCC66CCFF66FF0066
310
FF3366FF6666FF9966FFCC66FFFF9900009900339900669900999900CC9900FF9933009933339933669933999933CC9933FF9966009966339966669966999966CC9966FF9999009999339999669999999999CC9999FF99CC0099CC3399CC6699CC9999CCCC99CCFF99FF0099FF3399FF6699FF9999FFCC99FFFFCC0000CC00
310
33CC0066CC0099CC00CCCC00FFCC3300CC3333CC3366CC3399CC33CCCC33FFCC6600CC6633CC6666CC6699CC66CCCC66FFCC9900CC9933CC9966CC9999CC99CCCC99FFCCCC00CCCC33CCCC66CCCC99CCCCCCCCCCFFCCFF00CCFF33CCFF66CCFF99CCFFCCCCFFFFFF0000FF0033FF0066FF0099FF00CCFF00FFFF3300FF3333
310
FF3366FF3399FF33CCFF33FFFF6600FF6633FF6666FF6699FF66CCFF66FFFF9900FF9933FF9966FF9999FF99CCFF99FFFFCC00FFCC33FFCC66FFCC99FFCCCCFFCCFFFFFF00FFFF33FFFF66FFFF99FFFFCCFFFFFF0000000D0D0D1A1A1A2828283535354343435050505D5D5D6B6B6B787878868686939393A1A1A1AEAEAEBB
310
BBBBC9C9C9D6D6D6E4E4E4F1F1F1FFFFFF00000000000000000000000000000000000000000000000000000000000008F1915C000000097048597300000EC400000EC401952B0E1B00000C1A49444154789CED5C4982E4A80ED571B489FBEF7A53D7E01AEC7F1ACD421E32D3F8477497AA3BC3E110183D1E424C06F82B7FE5
310
82FCF940B917805B737B44D603D048F8E2C687F98CE13463C43AD1E703D0A09DE78C09004BF40000F42CC45B01F8B2478CC0862719E3105F1A4BF4840F409593E4BE7A4E484D795DCB7880653A31D16A00A46A4E8D27E54BA40E367F91FB2C5B84DE7A507389DE088061D4853AC560C02900AD2193DE107D630046D90E8DC2
310
AD42E122030691706BFA5F7F8D550F01E06BF3B4995AB547931AC4B6C0F5F9F50193766E39FCC5F900B9F31C032E3A402462DB354B4B36B5464D7A1835EE1F68CB55DF1EDFBBBBB91200F6E1226C3B01A0F77355B19B9A19104CD20AEDCDEA7397017CD18734FA901F1602902AC13501045FB8C06C715398F9099E3E9AC0F1
310
E92B51A13DC0DE6E0CA31500600842A2050038434700C63D36B848A825303674BAB8A9CAAD61A055F7E46945E342424BCCEF5F0FEC0E8295008416BFD9C541E868076AC554AF5F95DFE57B0900AACD52A1F24B010067CD0647068C842ED12A27385888D4076B2F903D215A0C6BB42E01D002932152A1E341D86675AE7F367F
310
3408FE36107802806139311B9BF442D9322E87D5D1502AEA54FC79AA50D80300C4FB6506D0AD07BA41EAA785D9ADA9870FE5344FB521C52DB460807A7452E94DEC23ED8C40535D6DF5CE217EFD71A82D024038A83DB079855450A9166BA5459DBA1ECD2AD42A330F1BC6C325E3908011580E406B42D7C6752096C7200FCC53
310
35A5E8E82FF6EC0FB9B236C0ACEEEC0D09203F620900ADC58A1D5410FF6FE554A6826FD67D26B5EFD3AD17A06B02A025755256CC3C65B67FEE116B0030C30C007EA20360982595A40C80A94E9900902B7458835DC31E5137F87B2E8694A62F056094C0C5A0B00F8031B585D2CD0004032457D19ED4BBFDF30C907BEE114B00
310
80C43D20006468060A9316D218007B00A839C200674B56EF596237F804005C3AEA0588018902BEAFE6EE02EA3ACD0CD04C4D3BA987EAEEAE184F01A025ED8D8BBB0B80D46353BB3200B3FDA44CD6D50038F68762804BB41C80CDAC8D7B0CC0368675E3843E221F29108AA2B8B5F1331BD421D4E9C855006027E8D4FB0C8015
310
A3BB449464C17C406B366B23C30199156FC40044F47A4E5F67AC9B4EFB06CDA4ABDA32E26849DB67EBEF68A2050CE8DB033C03661F40F37A63222430002606205FB9DA6306F48A01480C4057FFA1182E515FC48051020C8DAF04607C43EF03461121FA004DA6C567466368CE5E1D9A013B152334012BF2BD006C33901C798A
310
FB85EC040D0073ECF2253841B9F44E3C38F5E8040500EB0320148361790000A92F1709828B03387C15A07ADF8B030C801807F43A0E30009CD491E04A009AB641D809856341FD58A0EF0160D61C44829A6F8C04E1D948709BE77041387013A801C8A3A63416500042AB76A3DB5D06185F5C311C03960E865086B9CD4261D74A
310
41E607711EAFE5D1A0B935278ED169E844EA8E594619F775350063BA613CAC3599E5404F00A0296210A0C00D576600387AD0E28B72351FC000CCF30176DDC3235601C0017993A9BE3C21821AECE4499E34233466140D2A0700185C110069828E342E01F4076684B44C4D0214EE05DC2286467B0321EB05F294987245ECA1D1
310
20185C30A91B5F347799A212DAAC068087BBFCA7498D3B00464064935DCC6AD0597D53F450C50A9DE102C72C996DEB7938BC7E5698B2D7005CCC08968DA512B792A9A3993C2D4E4B0C74DDB942E5AA98161F0F0A636D7043CFF1DFFA75015DC6D0C28D0991645898CE13008A9521C71536CB1611E6550403B66200B0477A00
310
00AE782BD6B4422E4BC6C3B6C6EB96D5DA20426CE8C76B83A83EC828D05C9380A56B835A860980628740DABA26AD6506204DFD1A00E54AA269F7990139D13200D20C60BD41C2EEBA198DCAA4B8BD4001A8D792BD3653C02D262EDE1FC0459056E676B3D1B3E30CBE6B17E86F4EAAC695ED8300D8E38B6837E736DC72328555
310
4F38C1B03B660F007548C7002850A9B91C6BBB3E462F5A4AB4B617B02541C2A102001C43E81A0AD5E0435D7BD903C0F0A204FEDB8300D04E188CE20B3A5DEEA91A8B42BA0B7065CAA4444B0188542D249572BA9D350514DFB79CC315299312AD06006E0500AC35153FE55B585066BAB10880422A7D6BAB60DBA34B5D77ABC5
310
6DAF4770E9731F0760BF4CF1E68E1C268F6C397BD84E8E8B01B85F9C0D2DB8BC33B8E8EBBF02805D29B4C3B74C99A0F129007C4F2A005AADB11280DCFFEECA6545AF7CA41369D1E6006CF570981FFCFF04E04CEA22FF561E00608AEB7E29FF01008E13FC05E06A3697E4F7B9BD8EE52759FE05E0A30088728BAB7B3B00E2C9
310
A18BBACBE44100A4F3D5FA3803E06018799F3C0580B38501C07300B6058E7F090088617AE27092C0128D4982CF03A0F038188FBBF2AD33191CF93C06542ED7ED65D45B67869DCD26DD24EB0168548D5D96C8F9F62506E025BD5FC9FD00C45AD329D1DE74D19CEE5C00E0896E609D130CAB796171342E9BEE092233602D020B
310
0188479FFC9236B4760A00A235015B57BB3F2E5AD80D869D1B3DAC4DC0A9771F76AB0F908D041F05805BCEB75D1D7608E0180032DB9CE00702E017A765855ACE866E720200FD416D2A582C09DD5DE45B7313FBD3563D630116477EE907B06AD733E5E53680B0563ECB778B7C873800E823ED53B26D4A2700D0553700CA95A5
310
6300AE21B0EAEC307DF45E3140B68ED625FC0600B716F9D6DC9CFD15033A1F26AE10F011F0387184D7C286DF16F9DEDC6C03A86C4E95971EE8F71A001E3050CCCC8976E3C1931670AD11AC3A3B0C7E77773AE440DB75114A0A34C7003AEC346EFF0C800B08AC04C0ED59D7EDAD7A6F0F00E7033605DD105A35819319D46BB2
310
0080B0432F334070893BFF320062AE868FA50B78F1FFF67122AFF96AD1D96148A737C18EBCF3C91D8EEFE73CC226A07644808D01EF0B40CF920F6EED014022A369D9115E2ABD6D13D8FEA4735BF311FE1300D003B0D307BE6913702D40031F7F3CDE39C103047804E88FDB4C424D60D4E22BDEDEA961BBF9E2EBA50004C2D3
310
E1717772ED0C80312342C7DE8B1FA9F87FFEFC79D1DB815F97DE21FC2AAE16003068EB09DF311E793700FA714F4DD6373D78E300D0C745F9A792D322DF26237E250927D86556D8DD34C5E30C4126027E01C01112373300F5583A560CE83303FA61861C2E7D14007244D677FAE9C8FB651FB0B7B1E78D0100052039418AED73
310
1C7004C0C865B703188F1B57E6EC7FD2AB2F00808FC94B6D4B9DEB91F77E250E38930200EDE13C24AC20BF4AF0F85AD60D2A05E211FECB91E0D5B86D33200250AABE58F32526438802D6036067D8DD1B12E011004000909F3D00A6B51080140B8529B183C110BF2E802E7787F4DF6040F859224701620900FE950F3605924F
310
B0EFCD07406BDEFECB00D04D6EF5121BFB26A0C0F88FFB4361B1CB1DE10F4E307483250178564C1000A866030A00AAA6929DE044963500C82B1FC2AC68B34B8A8D7609C0AB61871B0406000349B624FBDCCB723B00BC0900ED8D079101CC835D00C67A58AAF43D06C4EAFE69916F94B13F805AEE5666FF0A83F80E83A37501
310
5D17B5D5B00B00FCB4D2178C06D1C6388EF5F309F6630290E90CD5910F60792700B63FF6C6E0FCD2837EBC342653822808421910BF3300715AB36000EC18E5646C0FB1F2CECAE77DF8C5C5812500D0E28EDC8C0CB8B83CBE8DAB0D810F030078754B6F3B06889C2CF553FD73578A7DF602D60DFE56EEB27D883B388969D9E3
310
5B7B84C6C6D23EC2C92D6977BB6C59E3800175AFE8EFFAC98145CBE3287359FA930380E2844300805F9488D4854A779800C8611F87BF1A19FB9FBDE20300CCAF30F0EFFD700AB50C000689503AC2F19F651700F8AE10003744519338386DA7244F93B7F0F504007ABDE4B63DA0CB5B594126897F0F40907500D8126FB55E6D
310
7BFF6A0086502CD40500279700F0AD40AF92C6B25D62982A39AF001C03402190F868CC63838F608059E96EB8AF170060043ACE6F61BA05005C0E806F091E8B93B1EE385FC008502750C701F2B85897CE2457CFBEAB7801BEC63F5CDB04D49ACACED38D921C39930F98B4C9A89F0AAFABE2621F102DCA261C022008882F9C43
310
E1D72F2241993DC16591E0645F1194EBAA5FE906D010A847832F371FF04316E422DF20F701E087C36833C8B44E0C1F014040C0BF25C67E3F1EB08D116107F51F4D5789DB3700F846916F9018089DC8F98855F4F600F8A90F08B20A802B7269C85E83470CF8556149DEFBF034CB1227C87233008FC9B53D4157E49A65FF033A
310
D78DCC271090AE0000000049454E44AE426082
  0
ENDSEC
  0
EOF
